<?xml version="1.0" standalone="no"?>
<!DOCTYPE svg PUBLIC "-//W3C//DTD SVG 1.1//EN" "http://www.w3.org/Graphics/SVG/1.1/DTD/svg11.dtd" >
<svg xmlns="http://www.w3.org/2000/svg" xmlns:xlink="http://www.w3.org/1999/xlink" version="1.1">
<metadata>
Created by FontForge 20170731 at Wed Jun  7 15:42:27 2017
 By Aleksey,,,
Copyright (c) 2012 - 2017 Monotype GmbH. All rights reserved.
</metadata>
<defs>
<font id="AvenirNextLTPro-Light" horiz-adv-x="364" >
  <font-face 
    font-family="AvenirNext LT Pro Light"
    font-weight="300"
    font-stretch="normal"
    units-per-em="1000"
    panose-1="2 11 4 3 2 2 2 2 2 4"
    ascent="800"
    descent="-200"
    x-height="466"
    cap-height="708"
    bbox="-202 -250 972 945"
    underline-thickness="50"
    underline-position="-150"
    unicode-range="U+000D-FB04"
  />
<missing-glyph horiz-adv-x="512" 
d="M512 718v-718h-512v718h512zM462 50v617h-412v-617h412zM225 234l-2 17q0 28 2.5 47t9.5 34t18.5 28.5t28.5 30.5q16 16 26 27.5t15 20.5t7 17t2 18q0 36 -22.5 60.5t-53.5 24.5t-53.5 -22t-28.5 -73l-50 8q7 72 44 104.5t91 32.5t89 -35.5t35 -95.5q0 -32 -12.5 -58.5
t-50.5 -61.5q-19 -17 -29 -28.5t-14.5 -23.5t-5 -28.5t-0.5 -43.5h-46zM222 117v67h56v-67h-56z" />
    <glyph glyph-name="fi" unicode="fi" horiz-adv-x="529" 
d="M282 420h-114v-420h-55v420h-97v46h97v139q0 81 39 122t108 41q14 0 28 -1.5t25 -5.5l-9 -45q-20 5 -45 5q-27 0 -45 -10t-28 -26.5t-14 -38.5t-4 -47v-133h114v-46zM448 651q0 -18 -12.5 -29.5t-28.5 -11.5q-15 0 -27.5 11.5t-12.5 29.5t12.5 29.5t27.5 11.5
q16 0 28.5 -11.5t12.5 -29.5zM435 0h-55v466h55v-466z" />
    <glyph glyph-name="fl" unicode="fl" horiz-adv-x="529" 
d="M282 420h-114v-420h-55v420h-97v46h97v139q0 81 39 122t108 41q14 0 28 -1.5t25 -5.5l-9 -45q-20 5 -45 5q-27 0 -45 -10t-28 -26.5t-14 -38.5t-4 -47v-133h114v-46zM434 0h-54v756h54v-756z" />
    <glyph glyph-name=".notdef" horiz-adv-x="512" 
d="M512 718v-718h-512v718h512zM462 50v617h-412v-617h412zM225 234l-2 17q0 28 2.5 47t9.5 34t18.5 28.5t28.5 30.5q16 16 26 27.5t15 20.5t7 17t2 18q0 36 -22.5 60.5t-53.5 24.5t-53.5 -22t-28.5 -73l-50 8q7 72 44 104.5t91 32.5t89 -35.5t35 -95.5q0 -32 -12.5 -58.5
t-50.5 -61.5q-19 -17 -29 -28.5t-14.5 -23.5t-5 -28.5t-0.5 -43.5h-46zM222 117v67h56v-67h-56z" />
    <glyph glyph-name=".null" horiz-adv-x="0" 
 />
    <glyph glyph-name="nonmarkingreturn" unicode="&#xd;" horiz-adv-x="250" 
 />
    <glyph glyph-name="NULL" horiz-adv-x="0" 
 />
    <glyph glyph-name="NULL" horiz-adv-x="0" 
 />
    <glyph glyph-name="space" unicode=" " horiz-adv-x="250" 
 />
    <glyph glyph-name="exclam" unicode="!" horiz-adv-x="312" 
d="M201 39q0 -17 -12.5 -31t-32.5 -14t-32.5 14t-12.5 31q0 19 12.5 32.5t32.5 13.5t32.5 -13.5t12.5 -32.5zM185 193h-57v515h57v-515z" />
    <glyph glyph-name="quotedbl" unicode="&#x22;" horiz-adv-x="405" 
d="M250 708h49v-233h-49v233zM106 708h48v-233h-48v233z" />
    <glyph glyph-name="numbersign" unicode="#" horiz-adv-x="554" 
d="M193 269h144l23 172h-144zM138 222h-105v47h111l24 172h-109v47h116l29 220h48l-29 -220h144l30 220h48l-29 -220h96v-47h-103l-23 -172h100v-47h-107l-30 -222h-48l30 222h-145l-30 -222h-48z" />
    <glyph glyph-name="dollar" unicode="$" horiz-adv-x="574" 
d="M261 338q-36 11 -70.5 26t-61.5 37.5t-43.5 54.5t-16.5 77q0 42 15 75.5t41 57.5t61 37.5t75 16.5v72h40v-72q51 -1 100 -20.5t83 -59.5l-36 -34q-28 33 -66.5 51t-80.5 18v-293q39 -14 76 -30t65 -39.5t45 -56t17 -80.5q0 -42 -15.5 -76t-43 -58.5t-64.5 -38.5t-80 -15
v-72h-40v72q-66 2 -116 28t-87 74l40 31q36 -46 80.5 -66.5t82.5 -20.5v304zM301 34q27 1 53 10t46.5 26.5t33.5 44.5t13 65q0 29 -11.5 52t-31.5 41t-46.5 31.5t-56.5 23.5v-294zM261 675q-28 -2 -53 -12t-43.5 -27.5t-29.5 -42.5t-11 -56q0 -30 10.5 -53t29 -40
t43.5 -28.5t54 -19.5v279z" />
    <glyph glyph-name="percent" unicode="%" horiz-adv-x="829" 
d="M210 -30l-41 22l448 746l40 -22zM738 159q0 26 -9.5 48.5t-26 39t-39 26t-47.5 9.5t-47 -9.5t-38.5 -26t-26 -39t-9.5 -48.5t9.5 -48.5t26 -39t38.5 -25.5t47 -9t47.5 9t39 25.5t26 39t9.5 48.5zM787 159q0 -36 -13.5 -67t-36.5 -54t-54 -36t-67 -13t-67 13t-54 36
t-36 54t-13 67t13 67t36 54t54 36t67 13t67 -13t54 -36t36.5 -54t13.5 -67zM334 548q0 26 -9.5 48.5t-26 39t-38.5 26t-47 9.5q-26 0 -48 -9.5t-38.5 -26t-26 -39t-9.5 -48.5t9.5 -48.5t26 -39t38.5 -25.5t48 -9q25 0 47 9t38.5 25.5t26 39t9.5 48.5zM383 548q0 -36 -13 -67
t-36 -54t-54 -36t-67 -13t-67 13t-54.5 36t-36.5 54t-13 67t13 67t36.5 54.5t54.5 36.5t67 13t67 -13t54 -36.5t36 -54.5t13 -67z" />
    <glyph glyph-name="ampersand" unicode="&#x26;" horiz-adv-x="704" 
d="M256 357q-65 -30 -103 -71.5t-38 -103.5q0 -33 12.5 -60.5t34.5 -47t50.5 -30t61.5 -10.5q60 0 102.5 29.5t77.5 84.5zM413 571q0 48 -31 78t-77 30q-49 0 -81.5 -31t-32.5 -85q0 -21 7.5 -41.5t19 -39.5t26 -35.5t28.5 -29.5q27 13 52.5 28t45 33.5t31.5 41t12 51.5z
M524 158l151 -158h-78l-105 111q-45 -63 -97 -94t-124 -31q-44 0 -83 13t-68 38t-45.5 62t-16.5 84q0 40 12.5 71.5t34.5 57t52 45.5t66 37q-38 42 -63 81.5t-25 87.5q0 38 13 68.5t36 51.5t54 32t67 11q34 0 64 -10.5t52 -30.5t35 -48.5t13 -63.5t-13.5 -63t-36 -51
t-52 -41.5t-62.5 -34.5l180 -188l103 184h64z" />
    <glyph glyph-name="quotesingle" unicode="'" horiz-adv-x="260" 
d="M106 708h48v-233h-48v233z" />
    <glyph glyph-name="parenleft" unicode="(" horiz-adv-x="300" 
d="M97 288q0 -57 9.5 -114t26.5 -110.5t41 -103t54 -92.5l-43 -26q-63 91 -101.5 204.5t-38.5 241.5q0 63 10 124.5t28.5 119t44.5 109t57 93.5l43 -26q-29 -41 -53 -90.5t-41.5 -103.5t-27 -111.5t-9.5 -114.5z" />
    <glyph glyph-name="parenright" unicode=")" horiz-adv-x="300" 
d="M202 288q0 57 -9.5 114.5t-27 111.5t-41.5 103.5t-53 90.5l43 26q31 -42 57 -93.5t44.5 -109t29 -119t10.5 -124.5t-10.5 -124.5t-29 -119t-44.5 -109t-57 -93.5l-43 26q29 40 53 89.5t41.5 104t27 112t9.5 114.5z" />
    <glyph glyph-name="asterisk" unicode="*" horiz-adv-x="444" 
d="M246 557l147 47l16 -45l-148 -46l94 -127l-38 -29l-95 130l-95 -130l-38 29l94 127l-148 46l16 45l147 -47v151h48v-151z" />
    <glyph glyph-name="plus" unicode="+" horiz-adv-x="666" 
d="M358 327h223v-47h-223v-227h-49v227h-224v47h224v227h49v-227z" />
    <glyph glyph-name="comma" unicode="," horiz-adv-x="254" 
d="M98 -139h-45l64 233h57z" />
    <glyph glyph-name="hyphen" unicode="-" horiz-adv-x="314" 
d="M262 223h-210v46h210v-46z" />
    <glyph glyph-name="period" unicode="." horiz-adv-x="254" 
d="M172 40q0 -19 -12.5 -32.5t-32.5 -13.5t-32.5 13.5t-12.5 32.5q0 17 12.5 31t32.5 14t32.5 -14t12.5 -31z" />
    <glyph glyph-name="slash" unicode="/" horiz-adv-x="370" 
d="M57 -17l-47 15l305 729l45 -16z" />
    <glyph glyph-name="zero" unicode="0" horiz-adv-x="574" 
d="M287 675q-53 0 -86.5 -32t-52.5 -80t-25.5 -104.5t-6.5 -105.5t6.5 -105t25.5 -104t52.5 -79.5t86.5 -31.5t86.5 31.5t52 79.5t25.5 104t7 105t-7 105.5t-25.5 104.5t-52 80t-86.5 32zM287 724q67 0 111 -33t70 -86t36.5 -119t10.5 -133q0 -66 -10.5 -132t-36.5 -118.5
t-70 -85.5t-111 -33t-111 33t-70 85.5t-36.5 118.5t-10.5 132q0 67 10.5 133t36.5 119t70 86t111 33z" />
    <glyph glyph-name="one" unicode="1" horiz-adv-x="574" 
d="M344 0h-57v638l-130 -111l-34 40l170 141h51v-708z" />
    <glyph glyph-name="two" unicode="2" horiz-adv-x="574" 
d="M491 0h-436v60l277 292q40 42 68 86t28 95q0 33 -11.5 59t-31.5 45t-46.5 29t-56.5 10q-57 0 -97.5 -34t-54.5 -91l-56 12q8 36 27 65.5t46 51t61.5 33t73.5 11.5q42 0 79 -12.5t65 -36.5t44 -59t16 -80q0 -34 -9 -63t-25.5 -56t-38.5 -53t-49 -54l-248 -259h375v-51z
" />
    <glyph glyph-name="three" unicode="3" horiz-adv-x="574" 
d="M215 396h29q33 0 63.5 8t54 24.5t37 43t13.5 64.5q0 31 -11.5 57t-31 44.5t-45.5 28.5t-56 10q-45 0 -78 -19t-61 -61l-43 28q63 100 184 100q40 0 76 -12.5t63 -36t43 -58t16 -78.5q0 -63 -35 -107t-95 -58v-2q70 -14 111 -62t41 -117q0 -47 -16.5 -85.5t-45.5 -66
t-69.5 -42.5t-88.5 -15q-149 0 -213 132l47 24q53 -107 166 -107q34 0 64 11.5t52 32.5t34.5 50.5t12.5 65.5q0 42 -17 71.5t-44 47.5t-60.5 26.5t-67.5 8.5h-29v49z" />
    <glyph glyph-name="four" unicode="4" horiz-adv-x="574" 
d="M368 644h-2l-265 -419h267v419zM424 225h108v-50h-108v-175h-56v175h-326v57l306 476h76v-483z" />
    <glyph glyph-name="five" unicode="5" horiz-adv-x="574" 
d="M466 657h-296l-6 -236q24 11 51.5 15t53.5 4q50 0 91.5 -16.5t71.5 -45.5t46.5 -70t16.5 -90q0 -53 -17.5 -96t-48.5 -74t-72.5 -47.5t-90.5 -16.5q-75 0 -124 31t-78 85l47 27q28 -48 64.5 -71t87.5 -23q36 0 67.5 13t55 36.5t37.5 56.5t14 74q0 40 -13.5 73.5t-37.5 57
t-58 36.5t-75 13q-38 0 -74.5 -10.5t-68.5 -27.5l7 353h349v-51z" />
    <glyph glyph-name="six" unicode="6" horiz-adv-x="574" 
d="M120 204q0 -37 12.5 -68.5t34.5 -54.5t52.5 -36t67.5 -13t67.5 13t52.5 36t34.5 54.5t12.5 68.5q0 36 -12 67.5t-33.5 54.5t-52 36t-67.5 13q-38 0 -69 -13t-53 -36t-34.5 -54.5t-12.5 -67.5zM180 384l2 -2q19 18 51.5 28.5t65.5 10.5q45 0 84 -16t67.5 -45t44.5 -68.5
t16 -87.5q0 -49 -16.5 -89.5t-46.5 -69.5t-71 -45t-90 -16t-90 16t-70.5 45t-46 69.5t-16.5 89.5q0 51 16.5 96.5t45.5 93.5l191 314h66z" />
    <glyph glyph-name="seven" unicode="7" horiz-adv-x="574" 
d="M486 654l-288 -654h-64l295 657h-352v51h409v-54z" />
    <glyph glyph-name="eight" unicode="8" horiz-adv-x="574" 
d="M122 192q0 -35 12 -64t33.5 -50.5t52 -33.5t67.5 -12t67.5 12t52 33.5t33.5 50.5t12 64q0 34 -12.5 63.5t-34 50.5t-52 33t-66.5 12t-66.5 -12t-52 -33t-34 -50.5t-12.5 -63.5zM148 537q0 -29 10.5 -54t29.5 -43t44 -28.5t55 -10.5t55 10.5t44 28.5t29.5 43t10.5 54
q0 30 -10.5 55.5t-29.5 44t-44 29t-55 10.5t-55 -10.5t-44 -29t-29.5 -44t-10.5 -55.5zM370 376q66 -19 102.5 -69.5t36.5 -119.5q0 -47 -17.5 -84.5t-48 -63.5t-71 -40.5t-85.5 -14.5t-85.5 14.5t-71 40.5t-48 63.5t-17.5 84.5q0 69 37.5 120t101.5 69v2q-26 9 -46.5 25.5
t-35 38t-22.5 46.5t-8 52q0 42 15.5 76t42 58t62 37t75.5 13t75.5 -13t62 -37t42 -58t15.5 -76q0 -27 -8 -52t-22.5 -46.5t-35.5 -38t-46 -25.5v-2z" />
    <glyph glyph-name="nine" unicode="9" horiz-adv-x="574" 
d="M455 505q0 37 -12.5 68t-34.5 54t-52.5 36t-67.5 13t-67.5 -13t-52.5 -36t-34.5 -54t-12.5 -68q0 -36 12 -67.5t33.5 -54t52 -35.5t68.5 -13q37 0 68 13t53 35.5t34.5 54t12.5 67.5zM396 326l-2 2q-19 -18 -52 -28.5t-66 -10.5q-45 0 -84 15.5t-67.5 44t-44.5 68.5
t-16 88t17 88.5t47 69.5t71 45t90 16t89.5 -16t70 -45t46 -69t16.5 -89q0 -51 -16 -96t-45 -93l-192 -316h-66z" />
    <glyph glyph-name="colon" unicode=":" horiz-adv-x="294" 
d="M192 40q0 -19 -12.5 -32.5t-32.5 -13.5t-32.5 13.5t-12.5 32.5q0 17 12.5 31t32.5 14t32.5 -14t12.5 -31zM192 424q0 -18 -12.5 -31.5t-32.5 -13.5t-32.5 13.5t-12.5 31.5t12.5 32t32.5 14t32.5 -14t12.5 -32z" />
    <glyph glyph-name="semicolon" unicode=";" horiz-adv-x="294" 
d="M112 -139h-47l64 233h59zM192 424q0 -18 -12.5 -31.5t-32.5 -13.5t-32.5 13.5t-12.5 31.5t12.5 32t32.5 14t32.5 -14t12.5 -32z" />
    <glyph glyph-name="less" unicode="&#x3c;" horiz-adv-x="666" 
d="M581 508l-436 -205l436 -205v-49l-496 234v40l496 234v-49z" />
    <glyph glyph-name="equal" unicode="=" horiz-adv-x="666" 
d="M581 249v-48h-496v48h496zM581 405v-47h-496v47h496z" />
    <glyph glyph-name="greater" unicode="&#x3e;" horiz-adv-x="666" 
d="M85 557l496 -234v-40l-496 -234v49l436 205l-436 205v49z" />
    <glyph glyph-name="question" unicode="?" horiz-adv-x="479" 
d="M289 39q0 -17 -12 -31t-32 -14t-32.5 14t-12.5 31q0 19 12.5 32.5t32.5 13.5q19 0 31.5 -13.5t12.5 -32.5zM267 194h-56v58q0 51 21 84.5t56 63.5l30 26q26 23 43.5 49.5t17.5 69.5q0 30 -10.5 54t-29 40t-43 24.5t-52.5 8.5q-58 0 -95 -35t-46 -90l-54 10
q15 78 68 121.5t129 43.5q39 0 74 -11.5t60.5 -33.5t40.5 -54.5t15 -74.5q0 -32 -7 -56t-19.5 -43t-29 -34.5t-35.5 -30.5q-23 -19 -38 -34t-24 -31t-12.5 -34.5t-3.5 -44.5v-46z" />
    <glyph glyph-name="at" unicode="@" horiz-adv-x="800" 
d="M727 107q-57 -63 -136 -94.5t-173 -31.5q-86 0 -155.5 28t-119.5 78t-77 118.5t-27 148.5q0 79 29.5 147t80.5 118.5t120 79t148 28.5q70 0 133.5 -21t112 -62t77 -100.5t28.5 -135.5q0 -59 -15 -105t-41.5 -77.5t-62 -48.5t-76.5 -17q-45 0 -65 22t-20 56h-3
q-6 -12 -17.5 -25.5t-28 -25.5t-37 -19.5t-45.5 -7.5q-33 0 -58 12t-42.5 32.5t-26.5 48.5t-9 61q0 43 14 85t40 75.5t62.5 54.5t82.5 21q42 0 68.5 -19.5t35.5 -49.5h4l13 53h50l-49 -201q-2 -6 -3.5 -16t-3 -20.5t-2.5 -20.5t-1 -17q0 -22 11 -37t42 -15t55 15.5
t40.5 42.5t25 62.5t8.5 75.5q0 64 -22.5 115t-62 86.5t-94.5 54t-119 18.5q-71 0 -129.5 -25.5t-100.5 -69.5t-65 -103.5t-23 -127.5q0 -71 23.5 -130.5t66.5 -102t103 -66t132 -23.5q88 0 155.5 31t118.5 83zM418 502q-33 0 -59 -18t-44 -45.5t-27 -61.5t-9 -66
q0 -17 4 -35.5t14 -33.5t26.5 -25t40.5 -10q37 0 63 20.5t43 50.5t25 63t8 59q0 19 -4.5 37.5t-14 33t-26 23t-40.5 8.5z" />
    <glyph glyph-name="A" unicode="A" horiz-adv-x="690" 
d="M176 243h337l-167 405zM75 0h-63l307 708h57l301 -708h-63l-80 191h-379z" />
    <glyph glyph-name="B" unicode="B" horiz-adv-x="629" 
d="M155 49h149q41 0 77.5 8t64 26t43.5 46t16 67t-14.5 67.5t-39.5 46.5t-60 27t-75 9h-161v-297zM155 394h152q28 0 57.5 7t53 22.5t38.5 41t15 62.5q0 36 -14.5 61.5t-39 41t-57 22.5t-68.5 7h-137v-265zM98 708h205q40 0 80.5 -8t73 -28.5t52.5 -54.5t20 -86
q0 -63 -37 -103t-94 -53v-2q32 -3 62 -16t53 -35.5t36.5 -54.5t13.5 -73q0 -48 -19.5 -84.5t-53 -60.5t-80 -36.5t-100.5 -12.5h-212v708z" />
    <glyph glyph-name="C" unicode="C" horiz-adv-x="721" 
d="M684 105q-45 -57 -106.5 -90.5t-151.5 -33.5q-80 0 -147 28t-115.5 77.5t-75.5 118t-27 149.5t27.5 149.5t76.5 118t116 77.5t146 28q78 0 142 -26t102 -77l-41 -38q-31 39 -83.5 64.5t-118.5 25.5q-71 0 -128 -25.5t-96.5 -69.5t-61 -102.5t-21.5 -124.5
q0 -65 21.5 -123.5t61 -102.5t96.5 -70t128 -26q62 0 115.5 22.5t101.5 81.5z" />
    <glyph glyph-name="D" unicode="D" horiz-adv-x="761" 
d="M155 51h152q79 0 141 23t105 64t65 96t22 120t-22 120.5t-65 96t-105 63.5t-141 23h-152v-606zM98 708h224q71 0 139 -21.5t121 -65.5t85.5 -110.5t32.5 -156.5t-32.5 -156.5t-85.5 -110.5t-121 -65.5t-139 -21.5h-224v708z" />
    <glyph glyph-name="E" unicode="E" horiz-adv-x="591" 
d="M154 51h388v-51h-444v708h431v-51h-375v-264h351v-50h-351v-292z" />
    <glyph glyph-name="F" unicode="F" horiz-adv-x="561" 
d="M155 0h-57v708h420v-51h-363v-265h337v-50h-337v-342z" />
    <glyph glyph-name="G" unicode="G" horiz-adv-x="784" 
d="M641 596q-38 38 -92.5 59t-118.5 21q-71 0 -128.5 -25.5t-97.5 -69.5t-61.5 -102.5t-21.5 -123.5t21.5 -124t61.5 -103t97.5 -70t130.5 -26q64 0 116 13.5t87 34.5v234h-170v50h227v-316q-54 -32 -120 -49.5t-141 -17.5q-81 0 -149 28t-117 78t-76.5 118.5t-27.5 149.5
q0 80 27.5 148.5t77 118t117 77.5t147.5 28q81 0 141.5 -23.5t105.5 -68.5z" />
    <glyph glyph-name="H" unicode="H" horiz-adv-x="722" 
d="M98 708h57v-314h413v314h57v-708h-57v341h-413v-341h-57v708z" />
    <glyph glyph-name="I" unicode="I" horiz-adv-x="252" 
d="M155 0h-57v708h57v-708z" />
    <glyph glyph-name="J" unicode="J" horiz-adv-x="488" 
d="M79 131q11 -42 44 -70.5t81 -28.5q39 0 64.5 14t41.5 37.5t22.5 55t6.5 66.5v503h57v-507q0 -39 -9 -78t-30 -70.5t-57 -51t-90 -19.5q-73 0 -121.5 38t-62.5 96z" />
    <glyph glyph-name="K" unicode="K" horiz-adv-x="609" 
d="M155 388l343 320h82l-358 -322l377 -386h-83l-361 378v-378h-57v708h57v-320z" />
    <glyph glyph-name="L" unicode="L" horiz-adv-x="506" 
d="M155 51h336v-51h-393v708h57v-657z" />
    <glyph glyph-name="M" unicode="M" horiz-adv-x="892" 
d="M98 708h88l261 -613l259 613h88v-708h-57v635h-2l-273 -635h-32l-273 635h-2v-635h-57v708z" />
    <glyph glyph-name="N" unicode="N" horiz-adv-x="768" 
d="M611 82h2v626h57v-708h-72l-441 630h-2v-630h-57v708h72z" />
    <glyph glyph-name="O" unicode="O" horiz-adv-x="857" 
d="M736 354q0 66 -21.5 124.5t-62 102.5t-97.5 69.5t-127 25.5q-71 0 -127.5 -25.5t-96.5 -69.5t-61.5 -102.5t-21.5 -124.5q0 -65 21.5 -123.5t61.5 -102.5t96.5 -70t127.5 -26t128 26t97 70t61.5 102.5t21.5 123.5zM796 354q0 -81 -28 -149.5t-77 -118t-116.5 -77.5
t-146.5 -28t-146 28t-116 77.5t-77 118t-28 149.5t28 149.5t77 118t116 77.5t146 28t146.5 -28t116.5 -77.5t77 -118t28 -149.5z" />
    <glyph glyph-name="P" unicode="P" horiz-adv-x="578" 
d="M155 383h140q79 0 127.5 34.5t48.5 105.5q0 36 -13.5 61.5t-37 42t-56 24.5t-70.5 8h-139v-276zM98 708h197q49 0 92 -10.5t74 -33t49 -57.5t18 -84q0 -47 -17 -82t-47.5 -58.5t-73 -35.5t-92.5 -12h-143v-335h-57v708z" />
    <glyph glyph-name="Q" unicode="Q" horiz-adv-x="855" 
d="M825 0h-405q-76 0 -141.5 26.5t-114 74.5t-76 114.5t-27.5 146.5q0 79 27 146t75 115.5t114 76t144 27.5q76 0 142 -27.5t114 -76.5t75.5 -115.5t27.5 -145.5q0 -50 -13 -97t-38 -87.5t-60 -72.5t-80 -52v-2h236v-51zM121 362q0 -63 21 -119.5t60 -99.5t94.5 -68
t124.5 -25t124.5 26t94.5 69t60 99.5t21 117.5q0 63 -21.5 120t-60.5 100t-94.5 68.5t-123.5 25.5q-69 0 -124.5 -25t-94.5 -68t-60 -100t-21 -121z" />
    <glyph glyph-name="R" unicode="R" horiz-adv-x="598" 
d="M155 388h139q91 0 139 34t48 101q0 38 -14.5 64t-39.5 42t-59.5 23t-74.5 7h-138v-271zM155 0h-57v708h204q49 0 92 -9t75 -31t50.5 -57.5t18.5 -87.5q0 -42 -15.5 -74.5t-41 -55t-60 -35t-71.5 -15.5l209 -343h-69l-202 339h-133v-339z" />
    <glyph glyph-name="S" unicode="S" horiz-adv-x="566" 
d="M450 606q-29 35 -67 53.5t-89 18.5q-29 0 -58 -8.5t-52.5 -26.5t-38.5 -45t-15 -63q0 -39 16 -64t42 -42.5t59.5 -29t68.5 -23.5t68.5 -26t59.5 -35.5t42 -53.5t16 -80q0 -51 -19.5 -88.5t-51 -62.5t-72.5 -37t-83 -12q-69 0 -122.5 26.5t-91.5 75.5l40 35q38 -45 80 -66
t94 -21q31 0 61 9.5t54 28t38.5 46t14.5 63.5q0 39 -16 64.5t-42 43.5t-59.5 30t-68 24t-68 26t-59.5 36t-42 54t-16 79q0 49 20 85t51.5 60t71.5 35.5t81 11.5q70 0 118.5 -24.5t75.5 -59.5z" />
    <glyph glyph-name="T" unicode="T" horiz-adv-x="561" 
d="M309 0h-57v657h-238v51h533v-51h-238v-657z" />
    <glyph glyph-name="U" unicode="U" horiz-adv-x="717" 
d="M358 -19q-78 0 -129.5 26t-81.5 67t-42.5 91.5t-12.5 99.5v443h57v-436q0 -42 9.5 -85t33 -77.5t64 -56t102.5 -21.5q61 0 101.5 21.5t64.5 55.5t34 77t10 86v436h57v-443q0 -49 -12.5 -99.5t-43 -91.5t-82 -67t-129.5 -26z" />
    <glyph glyph-name="V" unicode="V" horiz-adv-x="618" 
d="M308 71h2l239 637h61l-270 -708h-64l-269 708h62z" />
    <glyph glyph-name="W" unicode="W" horiz-adv-x="967" 
d="M262 75h2l184 633h71l185 -633h3l182 633h60l-210 -708h-69l-186 632h-2l-185 -632h-69l-210 708h60z" />
    <glyph glyph-name="X" unicode="X" horiz-adv-x="631" 
d="M24 0l257 372l-234 336h71l198 -292l196 292h67l-231 -335l259 -373h-71l-221 327l-220 -327h-71z" />
    <glyph glyph-name="Y" unicode="Y" horiz-adv-x="583" 
d="M320 0h-57v306l-259 402h71l218 -353l219 353h66l-258 -402v-306z" />
    <glyph glyph-name="Z" unicode="Z" horiz-adv-x="579" 
d="M536 657l-428 -606h436v-51h-506v50l429 607h-418v51h487v-51z" />
    <glyph glyph-name="bracketleft" unicode="[" horiz-adv-x="300" 
d="M220 688h-103v-800h103v-44h-155v888h155v-44z" />
    <glyph glyph-name="backslash" unicode="\" horiz-adv-x="370" 
d="M10 711l46 16l304 -729l-46 -15z" />
    <glyph glyph-name="bracketright" unicode="]" horiz-adv-x="300" 
d="M80 -112h103v800h-103v44h155v-888h-155v44z" />
    <glyph glyph-name="asciicircum" unicode="^" horiz-adv-x="666" 
d="M313 708h40l228 -443h-50l-198 389l-198 -389h-50z" />
    <glyph glyph-name="underscore" unicode="_" horiz-adv-x="500" 
d="M0 -81h500v-41h-500v41z" />
    <glyph glyph-name="grave" unicode="`" horiz-adv-x="240" 
d="M-1 708h72l101 -144h-47z" />
    <glyph glyph-name="a" unicode="a" horiz-adv-x="527" 
d="M231 32q40 0 70 14.5t49 38t28.5 54t9.5 62.5v38h-35q-41 0 -83 -3.5t-77 -15t-57 -33.5t-22 -58q0 -27 10.5 -46t27.5 -30t37.5 -16t41.5 -5zM218 -13q-27 0 -55.5 7.5t-51.5 24.5t-38 43t-15 64q0 50 24.5 81t64.5 47.5t90.5 22t103.5 5.5h47v21q0 66 -34.5 98
t-97.5 32q-42 0 -77.5 -15t-61.5 -40l-30 36q29 29 74.5 46.5t99.5 17.5q39 0 71.5 -10.5t56.5 -31.5t37.5 -52.5t13.5 -74.5v-204q0 -27 2 -56t6 -49h-49q-3 18 -5.5 42.5t-2.5 43.5h-2q-29 -51 -71.5 -75t-99.5 -24z" />
    <glyph glyph-name="b" unicode="b" horiz-adv-x="634" 
d="M519 233q0 41 -12.5 77.5t-36.5 63.5t-58.5 43t-78.5 16q-41 0 -76 -15.5t-60.5 -42.5t-39.5 -63.5t-14 -78.5t14 -78.5t39.5 -63t60.5 -42t76 -15.5q44 0 78.5 15.5t58.5 42.5t36.5 63.5t12.5 77.5zM149 92v-92h-54v756h54v-385h3q30 54 80.5 80.5t105.5 26.5
q54 0 97.5 -18.5t75 -51.5t48.5 -78t17 -97t-17 -97t-48.5 -78t-75.5 -52t-97 -19q-55 0 -106 27t-80 78h-3z" />
    <glyph glyph-name="c" unicode="c" horiz-adv-x="494" 
d="M430 372q-21 27 -56 43t-73 16q-42 0 -76.5 -15.5t-59 -42t-37.5 -62.5t-13 -78t13 -78t37 -62.5t58 -41.5t76 -15q43 0 76.5 15t59.5 41l34 -31q-30 -35 -72.5 -54.5t-97.5 -19.5t-99 18.5t-75.5 51.5t-48.5 78t-17 98t17.5 98t49.5 77.5t76 51t98 18.5q51 0 94 -18
t72 -55z" />
    <glyph glyph-name="d" unicode="d" horiz-adv-x="634" 
d="M115 233q0 -41 12.5 -77.5t36.5 -63.5t58.5 -42.5t78.5 -15.5q41 0 76 15.5t60 42t39 63t14 78.5t-14 78.5t-39 63.5t-60 42.5t-76 15.5q-44 0 -78.5 -16t-58.5 -43t-36.5 -63.5t-12.5 -77.5zM482 92q-30 -51 -80.5 -78t-105.5 -27q-53 0 -97 19t-75.5 52t-48.5 78
t-17 97t17 96.5t48.5 77.5t75.5 52t97 19q55 0 105.5 -26.5t80.5 -80.5h2v385h55v-756h-55v92h-2z" />
    <glyph glyph-name="e" unicode="e" horiz-adv-x="567" 
d="M294 -13q-51 0 -94.5 18.5t-75 51.5t-49 78.5t-17.5 98.5q0 52 18 97t49 77.5t73 51t91 18.5q55 0 96 -18.5t68.5 -50t41.5 -72.5t14 -87v-28h-395q1 -37 14 -71t36.5 -60t57 -41.5t74.5 -15.5q54 0 91 20.5t69 58.5l36 -29q-39 -51 -88.5 -74t-109.5 -23zM455 265
q-2 37 -14 67.5t-33 53t-51 35t-69 12.5t-70.5 -15.5t-54 -39.5t-35 -54t-13.5 -59h340z" />
    <glyph glyph-name="f" unicode="f" horiz-adv-x="291" 
d="M282 420h-114v-420h-55v420h-97v46h97v139q0 81 39 122t108 41q14 0 28 -1.5t25 -5.5l-9 -45q-20 5 -45 5q-27 0 -45 -10t-28 -26.5t-14 -38.5t-4 -47v-133h114v-46z" />
    <glyph glyph-name="g" unicode="g" horiz-adv-x="630" 
d="M115 237q0 -39 12.5 -74.5t36.5 -62.5t58.5 -42.5t78.5 -15.5q41 0 76 14.5t60 41t39 62t14 77.5q0 39 -14 74.5t-39 62.5t-60 43t-76 16q-44 0 -78.5 -16t-58.5 -43t-36.5 -62.5t-12.5 -74.5zM109 -114q35 -38 83.5 -59.5t102.5 -21.5q53 0 89.5 16.5t58.5 45t31.5 66
t9.5 78.5v91h-2q-28 -51 -78.5 -78.5t-107.5 -27.5q-53 0 -97 18t-75.5 50t-48.5 76t-17 95t17 95t48.5 77t75.5 52t97 19q56 0 106.5 -27t79.5 -80h2v95h55v-455q0 -44 -11 -89t-38.5 -81.5t-75.5 -60t-121 -23.5q-66 0 -122.5 24.5t-96.5 67.5z" />
    <glyph glyph-name="h" unicode="h" horiz-adv-x="579" 
d="M151 375q23 51 67.5 77t96.5 26q46 0 79 -15t54.5 -41t31.5 -61.5t10 -76.5v-284h-54v264q0 34 -6 65t-21.5 53.5t-41 36t-64.5 13.5q-30 0 -58 -12t-49 -36.5t-34 -61t-13 -85.5v-237h-54v756h54v-381h2z" />
    <glyph glyph-name="i" unicode="i" horiz-adv-x="243" 
d="M162 651q0 -18 -12.5 -29.5t-28.5 -11.5q-15 0 -27.5 11.5t-12.5 29.5t12.5 29.5t27.5 11.5q16 0 28.5 -11.5t12.5 -29.5zM149 0h-55v466h55v-466z" />
    <glyph glyph-name="j" unicode="j" horiz-adv-x="244" 
d="M163 651q0 -18 -13 -29.5t-28 -11.5t-27.5 11.5t-12.5 29.5t12.5 29.5t27.5 11.5q16 0 28.5 -11.5t12.5 -29.5zM-16 -189q22 -5 38 -5q24 0 38.5 8.5t22 23t10 34t2.5 41.5v553h54v-560q0 -30 -5.5 -57t-19.5 -46.5t-38.5 -31t-62.5 -11.5q-10 0 -23 1t-24 5z" />
    <glyph glyph-name="k" unicode="k" horiz-adv-x="491" 
d="M149 254h3l222 212h78l-238 -214l263 -252h-80l-245 245h-3v-245h-54v756h54v-502z" />
    <glyph glyph-name="l" unicode="l" horiz-adv-x="244" 
d="M149 0h-54v756h54v-756z" />
    <glyph glyph-name="m" unicode="m" horiz-adv-x="885" 
d="M94 359q0 20 -1 51.5t-3 55.5h52q2 -20 3 -47t1 -46h2q10 24 26.5 43.5t37.5 33t44.5 21t48.5 7.5q54 0 91.5 -25.5t57.5 -85.5h2q23 54 66 82.5t101 28.5q45 0 77.5 -15t54 -41t31.5 -61.5t10 -76.5v-284h-54v264q0 34 -6.5 65t-21.5 54t-39.5 36.5t-59.5 13.5
q-36 0 -63.5 -15t-45.5 -41t-27 -60.5t-9 -73.5v-243h-55v274q0 32 -5 61t-18.5 50.5t-36.5 34.5t-59 13q-28 0 -54.5 -12.5t-47 -37t-33 -61t-12.5 -85.5v-237h-55v359z" />
    <glyph glyph-name="n" unicode="n" horiz-adv-x="578" 
d="M142 466q2 -20 3 -47t1 -46h2q10 24 27.5 43.5t40 33t48 21t51.5 7.5q46 0 79 -15t54 -41t31 -61.5t10 -76.5v-284h-54v264q0 34 -6 65t-21 53.5t-40.5 36t-64.5 13.5q-30 0 -58 -12t-49.5 -36.5t-34 -61t-12.5 -85.5v-237h-55v359q0 20 -1 51.5t-3 55.5h52z" />
    <glyph glyph-name="o" unicode="o" horiz-adv-x="609" 
d="M494 233q0 42 -13 78t-38 62.5t-60 42t-79 15.5t-78.5 -15.5t-59.5 -42t-38 -62.5t-13 -78t13 -78t38 -62.5t59.5 -41.5t78.5 -15t79 15t60 41.5t38 62.5t13 78zM550 233q0 -53 -18 -98t-50.5 -78t-78 -51.5t-99.5 -18.5t-99 18.5t-77.5 51.5t-50.5 78t-18 98t18 98
t50.5 77.5t77.5 51t99 18.5t99.5 -18.5t78 -51t50.5 -77.5t18 -98z" />
    <glyph glyph-name="p" unicode="p" horiz-adv-x="632" 
d="M517 233q0 41 -12.5 77.5t-36.5 63.5t-58.5 43t-78.5 16q-41 0 -75.5 -15.5t-59.5 -42.5t-39 -63.5t-14 -78.5t14 -78.5t39 -63t59.5 -42t75.5 -15.5q44 0 78.5 15.5t58.5 42.5t36.5 63.5t12.5 77.5zM148 -240h-54v706h54v-93h3q30 54 80 79.5t105 25.5q54 0 98 -18.5
t75.5 -51.5t48.5 -78t17 -97t-17 -97t-48 -78t-74.5 -52t-97.5 -19q-27 0 -54.5 6t-52 19t-45 32t-35.5 46h-3v-330z" />
    <glyph glyph-name="q" unicode="q" horiz-adv-x="632" 
d="M115 233q0 -41 12.5 -77.5t36.5 -63.5t58.5 -42.5t78.5 -15.5q41 0 75.5 15.5t59.5 42t39 63t14 78.5t-14 78.5t-39 63.5t-59.5 42.5t-75.5 15.5q-44 0 -78.5 -16t-58.5 -43t-36.5 -63.5t-12.5 -77.5zM481 92q-28 -51 -79 -78t-106 -27q-53 0 -97 19t-75.5 52t-48.5 78
t-17 97t17 97t48.5 78t75 51.5t97.5 18.5q55 0 105.5 -27t79.5 -80h3v95h55v-706h-55v332h-3z" />
    <glyph glyph-name="r" unicode="r" horiz-adv-x="347" 
d="M94 359q0 20 -1 51.5t-3 55.5h52q2 -20 3 -47t1 -46h2q20 51 61 78t92 27q11 0 19.5 -0.5t17.5 -3.5l-6 -50q-5 2 -16 3t-22 1q-64 0 -104.5 -49.5t-40.5 -139.5v-239h-55v359z" />
    <glyph glyph-name="s" unicode="s" horiz-adv-x="435" 
d="M337 369q-17 29 -47.5 46.5t-69.5 17.5q-18 0 -37 -4.5t-34 -14.5t-24.5 -25t-9.5 -37q0 -39 29.5 -58t87.5 -31q75 -17 115.5 -47t40.5 -87q0 -37 -14.5 -63.5t-38 -44t-54 -25.5t-62.5 -8q-54 0 -100.5 21t-76.5 66l43 31q20 -32 55.5 -52t78.5 -20q22 0 42.5 5
t36.5 16t26 28.5t10 41.5q0 31 -20 48t-50 27.5t-65.5 18.5t-65.5 22.5t-50 39t-20 67.5q0 34 13.5 58.5t35.5 40.5t51 23.5t59 7.5q51 0 92.5 -20.5t64.5 -58.5z" />
    <glyph glyph-name="t" unicode="t" horiz-adv-x="313" 
d="M294 420h-133v-295q0 -50 20.5 -68t53.5 -18q30 0 57 13l3 -47q-17 -6 -35 -9.5t-39 -3.5t-41.5 6t-36.5 20t-26 37t-10 57v308h-98v46h97v133h55v-133h133v-46z" />
    <glyph glyph-name="u" unicode="u" horiz-adv-x="578" 
d="M435 0q-2 19 -3 46.5t-1 45.5h-2q-10 -24 -27.5 -43.5t-39 -33t-47 -21t-52.5 -7.5q-46 0 -79 15t-54.5 41t-31.5 61.5t-10 76.5v285h55v-264q0 -35 6 -65.5t21 -53.5t40.5 -36.5t64.5 -13.5q30 0 58 12.5t49 37t34 61t13 85.5v237h54v-359q0 -20 1.5 -52t3.5 -55h-53z
" />
    <glyph glyph-name="v" unicode="v" horiz-adv-x="472" 
d="M268 0h-62l-188 466h61l158 -409h2l156 409h58z" />
    <glyph glyph-name="w" unicode="w" horiz-adv-x="732" 
d="M86 466l117 -398h2l133 398h55l135 -398h2l116 398h57l-144 -466h-61l-132 396h-2l-131 -396h-61l-144 466h58z" />
    <glyph glyph-name="x" unicode="x" horiz-adv-x="474" 
d="M203 242l-169 224h70l133 -186l133 186h66l-167 -222l186 -244h-71l-148 205l-151 -205h-65z" />
    <glyph glyph-name="y" unicode="y" horiz-adv-x="470" 
d="M84 -241q-14 0 -28 2t-27 5l7 49q22 -8 46 -8q37 0 57 24t34 61l40 105l-195 469h61l162 -411l2 2l150 409h59l-232 -596q-20 -51 -50.5 -81t-85.5 -30z" />
    <glyph glyph-name="z" unicode="z" horiz-adv-x="441" 
d="M393 425l-286 -378h297v-47h-368v40l287 380h-272v46h342v-41z" />
    <glyph glyph-name="braceleft" unicode="{" horiz-adv-x="300" 
d="M0 312q38 0 58 27t20 85v183q0 35 8.5 59t23.5 38.5t34.5 21t41.5 6.5h58v-44h-48q-19 0 -31.5 -7.5t-20 -20t-10.5 -28.5t-3 -33v-184q0 -35 -9 -58.5t-21.5 -38t-27 -21.5t-24.5 -8v-2q10 -2 24.5 -9t27 -21t21.5 -37.5t9 -58.5v-184q0 -17 3 -33t10.5 -28.5t20 -20
t31.5 -7.5h48v-44h-58q-22 0 -41.5 6.5t-34.5 21t-23.5 38.5t-8.5 59v183q0 58 -20 85t-58 27v48z" />
    <glyph glyph-name="bar" unicode="|" horiz-adv-x="222" 
d="M135 750v-1000h-48v1000h48z" />
    <glyph glyph-name="braceright" unicode="}" horiz-adv-x="300" 
d="M300 264q-38 0 -58 -27t-20 -85v-183q0 -35 -8.5 -59t-23.5 -38.5t-34.5 -21t-41.5 -6.5h-58v44h48q19 0 31.5 7.5t20 20t10.5 28.5t3 33v184q0 35 9 58.5t21.5 38t26.5 21t25 8.5v2q-11 1 -25 8t-26.5 21.5t-21.5 38t-9 58.5v184q0 17 -3 33t-10.5 28.5t-20 20
t-31.5 7.5h-48v44h58q22 0 41.5 -6.5t34.5 -21t23.5 -38.5t8.5 -59v-183q0 -58 20 -85t58 -27v-48z" />
    <glyph glyph-name="asciitilde" unicode="~" horiz-adv-x="666" 
d="M576 332q-23 -36 -56 -64t-78 -28q-30 0 -53 7t-55 28q-35 23 -57.5 33t-49.5 10q-36 0 -61 -23.5t-41 -52.5l-35 32q26 38 58 65.5t77 27.5q28 0 53 -7.5t54 -27.5q34 -23 59.5 -33.5t48.5 -10.5q18 0 33 7t28 18.5t23 25t18 26.5z" />
    <glyph glyph-name="uni00A0" unicode="&#xa0;" horiz-adv-x="250" 
 />
    <glyph glyph-name="exclamdown" unicode="&#xa1;" horiz-adv-x="312" 
d="M201 442q0 -19 -12.5 -32.5t-32.5 -13.5t-32.5 13.5t-12.5 32.5q0 18 12.5 31.5t32.5 13.5t32.5 -13.5t12.5 -31.5zM185 -227h-57v515h57v-515z" />
    <glyph glyph-name="cent" unicode="&#xa2;" horiz-adv-x="574" 
d="M144 233q0 -76 41 -129.5t111 -65.5v390q-35 -6 -63.5 -23.5t-48 -43t-30 -58.5t-10.5 -70zM296 -72v61q-48 5 -86.5 25t-65.5 52.5t-41.5 74.5t-14.5 92q0 49 15 91t42 74.5t65.5 52.5t85.5 25v64h44v-62q48 -2 87.5 -20t67.5 -53l-36 -33q-20 25 -52 41t-67 18v-395
q38 2 69 16.5t55 39.5l34 -31q-29 -33 -68 -52.5t-90 -21.5v-59h-44z" />
    <glyph glyph-name="sterling" unicode="&#xa3;" horiz-adv-x="574" 
d="M405 342h-169v-294h261v-48h-422v48h104v294h-96v48h96v106q0 45 11 86.5t35 73.5t62.5 51t94.5 19q42 0 78 -13.5t64 -41.5l-35 -40q-20 21 -47.5 33.5t-61.5 12.5q-44 0 -72 -17.5t-44 -45t-22 -60.5t-6 -63v-101h169v-48z" />
    <glyph glyph-name="currency" unicode="&#xa4;" horiz-adv-x="842" 
d="M422 507q-44 0 -80 -15.5t-61 -42.5t-38.5 -63t-13.5 -77t13.5 -77.5t38.5 -63.5t61 -43t80 -16t80 16t61 43t38.5 63.5t13.5 77.5t-13.5 77t-38.5 63t-61 42.5t-80 15.5zM621 470q25 -32 39 -72t14 -89q0 -51 -15 -92t-42 -73l94 -94l-35 -35l-21 21l-26.5 26.5l-26 26
t-21.5 20.5q-32 -25 -71.5 -39t-87.5 -14q-93 0 -160 55l-97 -96l-34 35l96 96q-55 64 -55 163q0 94 51 159l-92 92l35 35l92 -92q32 27 73.5 42.5t90.5 15.5t89.5 -15t72.5 -42l91 91l36 -35z" />
    <glyph glyph-name="yen" unicode="&#xa5;" horiz-adv-x="574" 
d="M260 223v113h-173v43h156l-228 329h70l204 -309l202 309h68l-226 -329h154v-43h-173v-113h173v-44h-173v-179h-54v179h-173v44h173z" />
    <glyph glyph-name="brokenbar" unicode="&#xa6;" horiz-adv-x="222" 
d="M135 170v-344h-47v344h47zM135 675v-344h-47v344h47z" />
    <glyph glyph-name="section" unicode="&#xa7;" horiz-adv-x="574" 
d="M258 417q-17 -2 -35 -8.5t-33 -18.5t-25 -30.5t-10 -43.5q0 -23 8.5 -39.5t23.5 -29t36 -22.5t46 -20l59 -26q17 3 33.5 10.5t30 19.5t21.5 29.5t8 40.5q0 24 -8.5 41.5t-23.5 31t-34.5 23.5t-41.5 19zM419 616q-12 25 -41 44t-75 19q-51 0 -85.5 -26.5t-34.5 -75.5
q0 -26 9 -43.5t24 -30t34.5 -22t40.5 -18.5l70 -33q25 -12 46 -25t36.5 -30.5t24.5 -39t9 -49.5q0 -27 -8.5 -49t-22.5 -38.5t-32.5 -28t-39.5 -17.5q39 -21 60.5 -51.5t21.5 -75.5q0 -41 -15 -70.5t-40.5 -49.5t-59 -29.5t-69.5 -9.5q-63 0 -112.5 25t-75.5 76l51 27
q20 -42 57.5 -61t80.5 -19q21 0 43.5 5.5t41 18t30 32.5t11.5 50q0 42 -27.5 66.5t-65.5 40.5l-100 48q-47 19 -77 50.5t-30 87.5q0 26 9 48t24.5 39t35.5 29t43 18q-15 8 -30 18t-27.5 24.5t-20 34.5t-7.5 47q0 39 14.5 68t39.5 48.5t57.5 29t67.5 9.5q61 0 102 -24t58 -61
z" />
    <glyph glyph-name="dieresis" unicode="&#xa8;" horiz-adv-x="240" 
d="M168 651q0 17 12 30t30 13q19 0 31 -13t12 -30t-12 -30.5t-31 -13.5q-18 0 -30 13.5t-12 30.5zM-13 651q0 17 12 30t31 13q18 0 30 -13t12 -30t-12 -30.5t-30 -13.5q-19 0 -31 13.5t-12 30.5z" />
    <glyph glyph-name="copyright" unicode="&#xa9;" horiz-adv-x="800" 
d="M69 353q0 -68 26 -128t71 -104.5t105.5 -70.5t129.5 -26q68 0 128 26t105 70.5t71 104.5t26 128q0 69 -26 129t-71 105t-105 71t-128 26q-69 0 -129.5 -26t-105.5 -71t-71 -105t-26 -129zM20 353q0 79 30 147.5t81.5 119.5t121 80.5t148.5 29.5q78 0 147 -29.5
t120.5 -80.5t81.5 -119.5t30 -147.5q0 -78 -30 -146.5t-81.5 -119.5t-120.5 -80t-147 -29q-79 0 -148.5 29t-121 80t-81.5 119.5t-30 146.5zM573 211q-25 -35 -66 -57.5t-95 -22.5q-48 0 -89 17t-70.5 47t-46.5 71.5t-17 90.5t17 90t46.5 71t70.5 47t89 17q46 0 88 -19.5
t67 -53.5l-42 -32q-17 23 -47 40t-65 17q-39 0 -70 -14.5t-53 -39t-34 -56.5t-12 -67q0 -36 11.5 -68t33.5 -56.5t53 -39t70 -14.5q32 0 64 14t56 46z" />
    <glyph glyph-name="ordfeminine" unicode="&#xaa;" horiz-adv-x="357" 
d="M236 572q-26 0 -52 -2t-47 -8.5t-34 -18.5t-13 -32q0 -29 21 -39.5t46 -10.5q45 0 69.5 26.5t24.5 65.5v19h-15zM251 614q0 35 -21.5 52t-56.5 17q-26 0 -49.5 -9.5t-38.5 -24.5l-26 30q20 19 51 30t66 11q60 0 89.5 -30t29.5 -78v-123q0 -15 1 -31t3 -27h-42
q-5 25 -5 48h-2q-17 -28 -44 -41.5t-60 -13.5q-17 0 -35.5 4.5t-33.5 14.5t-24.5 26.5t-9.5 40.5q0 32 18 51t47.5 28.5t67 12.5t75.5 3v9z" />
    <glyph glyph-name="guillemotleft" unicode="&#xab;" horiz-adv-x="482" 
d="M296 239l115 -179l-38 -26l-135 205l135 205l38 -26zM119 239l115 -179l-38 -26l-135 205l135 205l37 -26z" />
    <glyph glyph-name="logicalnot" unicode="&#xac;" horiz-adv-x="666" 
d="M584 131h-49v227h-452v47h501v-274z" />
    <glyph glyph-name="uni00AD" unicode="&#xad;" horiz-adv-x="314" 
d="M262 223h-210v46h210v-46z" />
    <glyph glyph-name="registered" unicode="&#xae;" horiz-adv-x="600" 
d="M294 506q24 0 43 8.5t19 34.5q0 24 -17.5 32t-36.5 8h-49v-83h41zM215 622h88q37 0 64 -17t27 -57q0 -29 -17.5 -46t-43.5 -22l71 -113h-47l-64 108h-40v-108h-38v255zM104 493q0 -40 15.5 -75.5t42 -62.5t62 -42.5t76.5 -15.5q40 0 76 15.5t62.5 42.5t42 62.5t15.5 75.5
t-15.5 76t-42 62.5t-62.5 42t-76 15.5q-41 0 -76.5 -15.5t-62 -42t-42 -62.5t-15.5 -76zM72 493q0 47 18 88.5t49 72t72.5 48.5t88.5 18t88.5 -18t72.5 -48.5t49 -72t18 -88.5t-18 -88t-49 -71.5t-72.5 -48t-88.5 -17.5t-88.5 17.5t-72.5 48t-49 71.5t-18 88z" />
    <glyph glyph-name="macron" unicode="&#xaf;" horiz-adv-x="240" 
d="M249 606h-258v44h258v-44z" />
    <glyph glyph-name="degree" unicode="&#xb0;" horiz-adv-x="400" 
d="M308 571q0 22 -8.5 42t-23 34.5t-34.5 23t-42 8.5q-23 0 -42.5 -8.5t-34 -23t-23 -34.5t-8.5 -42q0 -23 8.5 -42.5t23 -34t34 -23t42.5 -8.5q22 0 42 8.5t34.5 23t23 34t8.5 42.5zM348 571q0 -32 -11.5 -59t-31 -46.5t-47 -31t-58.5 -11.5q-32 0 -59 11.5t-46.5 31
t-31 46.5t-11.5 59q0 31 11.5 58.5t31 47t46.5 31t59 11.5q31 0 58.5 -11.5t47 -31t31 -47t11.5 -58.5z" />
    <glyph glyph-name="plusminus" unicode="&#xb1;" horiz-adv-x="666" 
d="M84 96h498v-48h-498v48zM83 394h225v168h48v-168h228v-48h-227v-164h-49v164h-225v48z" />
    <glyph glyph-name="twosuperior" unicode="&#xb2;" 
d="M313 452h-268v46l163 169q26 26 38.5 50t13.5 50q0 34 -21.5 52.5t-53.5 18.5q-30 0 -52.5 -18t-30.5 -53l-47 8q10 51 46 79t84 28q54 0 90 -29.5t36 -83.5q0 -43 -21 -73t-54 -64l-132 -136h209v-44z" />
    <glyph glyph-name="threesuperior" unicode="&#xb3;" 
d="M174 444q-48 0 -82 21.5t-53 66.5l45 16q12 -30 36.5 -45.5t53.5 -15.5q37 0 62 21.5t25 61.5q0 22 -9 37t-23.5 25t-33 14.5t-37.5 4.5h-24v41h24q42 0 66.5 20t24.5 58q0 32 -22.5 51t-53.5 19q-23 0 -44 -12.5t-34 -35.5l-39 21q21 35 51.5 52t67.5 17
q54 0 87.5 -28.5t33.5 -83.5q0 -34 -17.5 -58.5t-46.5 -35.5l-3 -2q37 -11 58.5 -37t21.5 -68q0 -31 -11 -54.5t-29.5 -39t-43 -23.5t-51.5 -8z" />
    <glyph glyph-name="acute" unicode="&#xb4;" horiz-adv-x="240" 
d="M115 564h-47l101 144h72z" />
    <glyph glyph-name="mu" unicode="&#xb5;" horiz-adv-x="556" 
d="M79 466h52v-264q0 -39 6.5 -70t22 -52.5t41 -33t63.5 -11.5q32 0 60 13t49 38t33 61t12 82v237h53v-359q0 -25 1 -54t3 -53h-57v89h-2q-11 -22 -28.5 -41t-39 -32.5t-46.5 -21t-50 -7.5q-42 0 -71.5 12.5t-49.5 33.5v-261h-52v694z" />
    <glyph glyph-name="paragraph" unicode="&#xb6;" horiz-adv-x="600" 
d="M506 -126h-53v791h-133v-791h-53v449q-47 0 -86 14.5t-66.5 39.5t-43 58.5t-15.5 71.5q0 97 60.5 149t166.5 52h223v-834z" />
    <glyph glyph-name="periodcentered" unicode="&#xb7;" horiz-adv-x="254" 
d="M172 296q0 -18 -12.5 -31.5t-32.5 -13.5t-32.5 13.5t-12.5 31.5t12.5 32t32.5 14t32.5 -14t12.5 -32z" />
    <glyph glyph-name="cedilla" unicode="&#xb8;" horiz-adv-x="240" 
d="M100 -78q9 3 18.5 4t21.5 1q15 0 30 -4t27 -13t19.5 -22.5t7.5 -31.5q0 -25 -11 -41.5t-28 -26t-37.5 -13.5t-39.5 -4q-20 0 -46 5t-47 15l13 31q17 -8 37 -12t39 -4q10 0 22.5 2.5t23.5 8t18.5 15t7.5 23.5q0 23 -17.5 33t-42.5 10q-11 0 -25.5 -2.5t-25.5 -7.5l-15 13
l64 99h36z" />
    <glyph glyph-name="onesuperior" unicode="&#xb9;" 
d="M220 452h-50v361l-73 -59l-30 34l111 85h42v-421z" />
    <glyph glyph-name="ordmasculine" unicode="&#xba;" horiz-adv-x="357" 
d="M281 572q0 45 -25.5 78t-76.5 33t-77 -33t-26 -78q0 -22 6.5 -42t19.5 -35.5t32 -24.5t45 -9q25 0 44 9t32 24.5t19.5 35.5t6.5 42zM328 572q0 -32 -11 -59.5t-31 -47t-47.5 -30.5t-59.5 -11q-33 0 -60.5 11t-47.5 30.5t-31 47t-11 59.5q0 33 11 60t31 46.5t47.5 30.5
t60.5 11q32 0 59.5 -11t47.5 -30.5t31 -46.5t11 -60z" />
    <glyph glyph-name="guillemotright" unicode="&#xbb;" horiz-adv-x="482" 
d="M186 239l-115 179l38 27l135 -206l-135 -205l-38 26zM363 239l-115 179l38 27l135 -206l-135 -205l-38 26z" />
    <glyph glyph-name="onequarter" unicode="&#xbc;" horiz-adv-x="828" 
d="M204 -30l-42 22l448 746l41 -22zM220 287h-50v361l-73 -59l-30 34l111 85h42v-421zM660 359l-137 -215h140v215h-3zM707 144h63v-43h-63v-101h-44v101h-190v43l178 279h56v-279z" />
    <glyph glyph-name="onehalf" unicode="&#xbd;" horiz-adv-x="828" 
d="M220 287h-50v361l-73 -59l-30 34l111 85h42v-421zM204 -30l-42 22l448 746l41 -22zM768 0h-268v46l163 169q26 26 38.5 50t13.5 50q0 34 -21.5 52.5t-53.5 18.5q-30 0 -52.5 -18t-30.5 -53l-47 8q10 51 46 79t84 28q54 0 90 -29.5t36 -83.5q0 -43 -21 -73t-54 -64
l-132 -136h209v-44z" />
    <glyph glyph-name="threequarters" unicode="&#xbe;" horiz-adv-x="828" 
d="M204 -30l-42 22l448 746l41 -22zM663 144v215h-3l-137 -215h140zM174 282q-48 0 -82 21.5t-53 66.5l45 16q12 -30 36.5 -45.5t53.5 -15.5q37 0 62 21.5t25 61.5q0 22 -9 37t-23.5 25t-33 14.5t-37.5 4.5h-24v41h24q42 0 66.5 20t24.5 58q0 32 -22.5 51t-53.5 19
q-23 0 -44 -12.5t-34 -35.5l-39 21q21 35 51.5 52t67.5 17q54 0 87.5 -28.5t33.5 -83.5q0 -35 -18.5 -60t-48.5 -36l1 -1q37 -10 58 -37t21 -67q0 -31 -11 -54.5t-29.5 -39t-43 -23.5t-51.5 -8zM663 101h-190v43l178 279h56v-279h63v-43h-63v-101h-44v101z" />
    <glyph glyph-name="questiondown" unicode="&#xbf;" horiz-adv-x="479" 
d="M194 442q0 18 12 31.5t32 13.5t32.5 -13.5t12.5 -31.5q0 -19 -12.5 -32.5t-32.5 -13.5q-19 0 -31.5 13.5t-12.5 32.5zM216 287h56v-58q0 -51 -21.5 -85t-55.5 -63l-30 -26q-26 -23 -43.5 -49.5t-17.5 -69.5q0 -30 10.5 -54t29 -40t43 -24.5t52.5 -8.5q58 0 95 35t45 90
l54 -9q-14 -78 -67 -122t-129 -44q-39 0 -74 11.5t-60.5 33.5t-40.5 54.5t-15 74.5q0 32 7 55.5t19.5 42.5t29 34.5t35.5 31.5q22 19 37 34t24 31t13 34.5t4 44.5v46z" />
    <glyph glyph-name="Agrave" unicode="&#xc0;" horiz-adv-x="690" 
d="M176 243h337l-167 405zM75 0h-63l307 708h57l301 -708h-63l-80 191h-379zM201 908h72l101 -144h-47z" />
    <glyph glyph-name="Aacute" unicode="&#xc1;" horiz-adv-x="690" 
d="M176 243h337l-167 405zM75 0h-63l307 708h57l301 -708h-63l-80 191h-379zM368 764h-47l101 144h72z" />
    <glyph glyph-name="Acircumflex" unicode="&#xc2;" horiz-adv-x="690" 
d="M176 243h337l-167 405zM75 0h-63l307 708h57l301 -708h-63l-80 191h-379zM484 764h-53l-86 115l-86 -115h-53l107 144h64z" />
    <glyph glyph-name="Atilde" unicode="&#xc3;" horiz-adv-x="690" 
d="M176 243h337l-167 405zM75 0h-63l307 708h57l301 -708h-63l-80 191h-379zM198 781q6 38 25 66t57 28q16 0 34.5 -7.5t36.5 -16t35 -16t29 -7.5q21 0 31 14.5t15 34.5h35q-6 -38 -25 -65.5t-56 -27.5q-16 0 -34.5 7.5t-36.5 16t-34.5 16t-29.5 7.5q-21 0 -31.5 -15
t-15.5 -35h-35z" />
    <glyph glyph-name="Adieresis" unicode="&#xc4;" horiz-adv-x="690" 
d="M176 243h337l-167 405zM75 0h-63l307 708h57l301 -708h-63l-80 191h-379zM395 851q0 17 12 30t30 13q19 0 31 -13t12 -30t-12 -30.5t-31 -13.5q-18 0 -30 13.5t-12 30.5zM214 851q0 17 12 30t31 13q18 0 30 -13t12 -30t-12 -30.5t-30 -13.5q-19 0 -31 13.5t-12 30.5z" />
    <glyph glyph-name="Aring" unicode="&#xc5;" horiz-adv-x="690" 
d="M176 243h337l-167 405zM75 0h-63l307 708h57l301 -708h-63l-80 191h-379zM411 850q0 27 -19 46t-46 19t-46 -19t-19 -46t19 -46t46 -19t46 19t19 46zM442 850q0 -20 -7.5 -37.5t-21 -30.5t-31 -20t-36.5 -7q-20 0 -37 7t-30.5 20t-21 30.5t-7.5 37.5t7.5 37.5t21 30
t30.5 20t37 7.5q19 0 36.5 -7.5t31 -20t21 -30t7.5 -37.5z" />
    <glyph glyph-name="AE" unicode="&#xc6;" horiz-adv-x="983" 
d="M511 251v406h-6l-262 -406h268zM568 51h361v-51h-418v200h-298l-130 -200h-65l460 708h437v-51h-347v-264h323v-50h-323v-292z" />
    <glyph glyph-name="Ccedilla" unicode="&#xc7;" horiz-adv-x="721" 
d="M684 105q-45 -57 -106 -90t-149 -34l-38 -59q9 3 18.5 4t21.5 1q15 0 30 -4t27 -13t19.5 -22.5t7.5 -31.5q0 -25 -11 -41.5t-28 -26t-37.5 -13.5t-39.5 -4q-20 0 -46 5t-47 15l13 31q17 -8 37 -12t39 -4q10 0 22.5 2.5t23.5 8t18.5 15t7.5 23.5q0 23 -17.5 33t-42.5 10
q-11 0 -25.5 -2.5t-25.5 -7.5l-15 13l52 81q-74 6 -135 36t-104.5 79t-68 114.5t-24.5 142.5q0 81 27.5 149.5t76.5 118t116 77.5t146 28q78 0 142 -26t102 -77l-41 -38q-31 39 -83.5 64.5t-118.5 25.5q-71 0 -128 -25.5t-96.5 -69.5t-61 -102.5t-21.5 -124.5
q0 -65 21.5 -123.5t61 -102.5t96.5 -70t128 -26q62 0 115.5 22.5t101.5 81.5z" />
    <glyph glyph-name="Egrave" unicode="&#xc8;" horiz-adv-x="591" 
d="M154 51h388v-51h-444v708h431v-51h-375v-264h351v-50h-351v-292zM191 908h72l101 -144h-47z" />
    <glyph glyph-name="Eacute" unicode="&#xc9;" horiz-adv-x="591" 
d="M154 51h388v-51h-444v708h431v-51h-375v-264h351v-50h-351v-292zM319 764h-47l101 144h72z" />
    <glyph glyph-name="Ecircumflex" unicode="&#xca;" horiz-adv-x="591" 
d="M154 51h388v-51h-444v708h431v-51h-375v-264h351v-50h-351v-292zM454 764h-53l-86 115l-86 -115h-53l107 144h64z" />
    <glyph glyph-name="Edieresis" unicode="&#xcb;" horiz-adv-x="591" 
d="M154 51h388v-51h-444v708h431v-51h-375v-264h351v-50h-351v-292zM364 851q0 17 12 30t30 13q19 0 31 -13t12 -30t-12 -30.5t-31 -13.5q-18 0 -30 13.5t-12 30.5zM183 851q0 17 12 30t31 13q18 0 30 -13t12 -30t-12 -30.5t-30 -13.5q-19 0 -31 13.5t-12 30.5z" />
    <glyph glyph-name="Igrave" unicode="&#xcc;" horiz-adv-x="252" 
d="M155 0h-57v708h57v-708zM-19 908h72l101 -144h-47z" />
    <glyph glyph-name="Iacute" unicode="&#xcd;" horiz-adv-x="252" 
d="M155 0h-57v708h57v-708zM144 764h-47l101 144h72z" />
    <glyph glyph-name="Icircumflex" unicode="&#xce;" horiz-adv-x="252" 
d="M155 0h-57v708h57v-708zM264 764h-53l-86 115l-86 -115h-53l107 144h64z" />
    <glyph glyph-name="Idieresis" unicode="&#xcf;" horiz-adv-x="252" 
d="M155 0h-57v708h57v-708zM174 851q0 17 12 30t30 13q19 0 31 -13t12 -30t-12 -30.5t-31 -13.5q-18 0 -30 13.5t-12 30.5zM-7 851q0 17 12 30t31 13q18 0 30 -13t12 -30t-12 -30.5t-30 -13.5q-19 0 -31 13.5t-12 30.5z" />
    <glyph glyph-name="Eth" unicode="&#xd0;" horiz-adv-x="761" 
d="M149 52h150q80 0 142.5 23t105 63.5t64.5 95.5t22 120q0 64 -22 119.5t-64.5 96t-105 63.5t-142.5 23h-150v-262h261v-44h-261v-298zM92 350h-75v44h75v314h225q71 0 139 -21.5t121 -65.5t85 -110.5t32 -156.5t-32 -156.5t-85 -110.5t-121 -65.5t-139 -21.5h-225v350z
" />
    <glyph glyph-name="Ntilde" unicode="&#xd1;" horiz-adv-x="768" 
d="M611 82h2v626h57v-708h-72l-441 630h-2v-630h-57v708h72zM239 781q6 38 25 66t57 28q16 0 34.5 -7.5t36.5 -16t35 -16t29 -7.5q21 0 31 14.5t15 34.5h35q-6 -38 -25 -65.5t-56 -27.5q-16 0 -34.5 7.5t-36.5 16t-34.5 16t-29.5 7.5q-21 0 -31.5 -15t-15.5 -35h-35z" />
    <glyph glyph-name="Ograve" unicode="&#xd2;" horiz-adv-x="857" 
d="M736 354q0 66 -21.5 124.5t-62 102.5t-97.5 69.5t-127 25.5q-71 0 -127.5 -25.5t-96.5 -69.5t-61.5 -102.5t-21.5 -124.5q0 -65 21.5 -123.5t61.5 -102.5t96.5 -70t127.5 -26t128 26t97 70t61.5 102.5t21.5 123.5zM796 354q0 -81 -28 -149.5t-77 -118t-116.5 -77.5
t-146.5 -28t-146 28t-116 77.5t-77 118t-28 149.5t28 149.5t77 118t116 77.5t146 28t146.5 -28t116.5 -77.5t77 -118t28 -149.5zM317 908h72l101 -144h-47z" />
    <glyph glyph-name="Oacute" unicode="&#xd3;" horiz-adv-x="857" 
d="M736 354q0 66 -21.5 124.5t-62 102.5t-97.5 69.5t-127 25.5q-71 0 -127.5 -25.5t-96.5 -69.5t-61.5 -102.5t-21.5 -124.5q0 -65 21.5 -123.5t61.5 -102.5t96.5 -70t127.5 -26t128 26t97 70t61.5 102.5t21.5 123.5zM796 354q0 -81 -28 -149.5t-77 -118t-116.5 -77.5
t-146.5 -28t-146 28t-116 77.5t-77 118t-28 149.5t28 149.5t77 118t116 77.5t146 28t146.5 -28t116.5 -77.5t77 -118t28 -149.5zM427 764h-47l101 144h72z" />
    <glyph glyph-name="Ocircumflex" unicode="&#xd4;" horiz-adv-x="857" 
d="M736 354q0 66 -21.5 124.5t-62 102.5t-97.5 69.5t-127 25.5q-71 0 -127.5 -25.5t-96.5 -69.5t-61.5 -102.5t-21.5 -124.5q0 -65 21.5 -123.5t61.5 -102.5t96.5 -70t127.5 -26t128 26t97 70t61.5 102.5t21.5 123.5zM796 354q0 -81 -28 -149.5t-77 -118t-116.5 -77.5
t-146.5 -28t-146 28t-116 77.5t-77 118t-28 149.5t28 149.5t77 118t116 77.5t146 28t146.5 -28t116.5 -77.5t77 -118t28 -149.5zM567 764h-53l-86 115l-86 -115h-53l107 144h64z" />
    <glyph glyph-name="Otilde" unicode="&#xd5;" horiz-adv-x="857" 
d="M736 354q0 66 -21.5 124.5t-62 102.5t-97.5 69.5t-127 25.5q-71 0 -127.5 -25.5t-96.5 -69.5t-61.5 -102.5t-21.5 -124.5q0 -65 21.5 -123.5t61.5 -102.5t96.5 -70t127.5 -26t128 26t97 70t61.5 102.5t21.5 123.5zM796 354q0 -81 -28 -149.5t-77 -118t-116.5 -77.5
t-146.5 -28t-146 28t-116 77.5t-77 118t-28 149.5t28 149.5t77 118t116 77.5t146 28t146.5 -28t116.5 -77.5t77 -118t28 -149.5zM280 781q6 38 25 66t57 28q16 0 34.5 -7.5t36.5 -16t35 -16t29 -7.5q21 0 31 14.5t15 34.5h35q-6 -38 -25 -65.5t-56 -27.5q-16 0 -34.5 7.5
t-36.5 16t-34.5 16t-29.5 7.5q-21 0 -31.5 -15t-15.5 -35h-35z" />
    <glyph glyph-name="Odieresis" unicode="&#xd6;" horiz-adv-x="857" 
d="M736 354q0 66 -21.5 124.5t-62 102.5t-97.5 69.5t-127 25.5q-71 0 -127.5 -25.5t-96.5 -69.5t-61.5 -102.5t-21.5 -124.5q0 -65 21.5 -123.5t61.5 -102.5t96.5 -70t127.5 -26t128 26t97 70t61.5 102.5t21.5 123.5zM796 354q0 -81 -28 -149.5t-77 -118t-116.5 -77.5
t-146.5 -28t-146 28t-116 77.5t-77 118t-28 149.5t28 149.5t77 118t116 77.5t146 28t146.5 -28t116.5 -77.5t77 -118t28 -149.5zM477 851q0 17 12 30t30 13q19 0 31 -13t12 -30t-12 -30.5t-31 -13.5q-18 0 -30 13.5t-12 30.5zM296 851q0 17 12 30t31 13q18 0 30 -13t12 -30
t-12 -30.5t-30 -13.5q-19 0 -31 13.5t-12 30.5z" />
    <glyph glyph-name="multiply" unicode="&#xd7;" horiz-adv-x="666" 
d="M333 339l165 165l34 -34l-165 -166l165 -165l-34 -34l-165 165l-165 -165l-33 34l165 165l-165 166l33 34z" />
    <glyph glyph-name="Oslash" unicode="&#xd8;" horiz-adv-x="857" 
d="M623 606q-38 33 -88 51.5t-111 18.5q-71 0 -128 -25.5t-96.5 -69.5t-61 -102.5t-21.5 -124.5q0 -63 20 -120t58 -100zM224 104q38 -34 87.5 -53t112.5 -19q72 0 129 26t96.5 70t61 102.5t21.5 123.5q0 64 -20.5 121.5t-59.5 100.5zM690 618q48 -51 75 -117t27 -147
t-28 -149.5t-77 -118t-116.5 -77.5t-146.5 -28q-69 0 -129 22t-108 61l-74 -80l-30 28l73 81q-48 49 -73.5 115.5t-25.5 145.5q0 81 28 149.5t77 118t116 77.5t146 28q69 0 128 -21t107 -60l74 80l30 -27z" />
    <glyph glyph-name="Ugrave" unicode="&#xd9;" horiz-adv-x="717" 
d="M358 -19q-78 0 -129.5 26t-81.5 67t-42.5 91.5t-12.5 99.5v443h57v-436q0 -42 9.5 -85t33 -77.5t64 -56t102.5 -21.5q61 0 101.5 21.5t64.5 55.5t34 77t10 86v436h57v-443q0 -49 -12.5 -99.5t-43 -91.5t-82 -67t-129.5 -26zM238 908h72l101 -144h-47z" />
    <glyph glyph-name="Uacute" unicode="&#xda;" horiz-adv-x="717" 
d="M358 -19q-78 0 -129.5 26t-81.5 67t-42.5 91.5t-12.5 99.5v443h57v-436q0 -42 9.5 -85t33 -77.5t64 -56t102.5 -21.5q61 0 101.5 21.5t64.5 55.5t34 77t10 86v436h57v-443q0 -49 -12.5 -99.5t-43 -91.5t-82 -67t-129.5 -26zM358 764h-47l101 144h72z" />
    <glyph glyph-name="Ucircumflex" unicode="&#xdb;" horiz-adv-x="717" 
d="M358 -19q-78 0 -129.5 26t-81.5 67t-42.5 91.5t-12.5 99.5v443h57v-436q0 -42 9.5 -85t33 -77.5t64 -56t102.5 -21.5q61 0 101.5 21.5t64.5 55.5t34 77t10 86v436h57v-443q0 -49 -12.5 -99.5t-43 -91.5t-82 -67t-129.5 -26zM497 764h-53l-86 115l-86 -115h-53l107 144h64
z" />
    <glyph glyph-name="Udieresis" unicode="&#xdc;" horiz-adv-x="717" 
d="M358 -19q-78 0 -129.5 26t-81.5 67t-42.5 91.5t-12.5 99.5v443h57v-436q0 -42 9.5 -85t33 -77.5t64 -56t102.5 -21.5q61 0 101.5 21.5t64.5 55.5t34 77t10 86v436h57v-443q0 -49 -12.5 -99.5t-43 -91.5t-82 -67t-129.5 -26zM407 851q0 17 12 30t30 13q19 0 31 -13t12 -30
t-12 -30.5t-31 -13.5q-18 0 -30 13.5t-12 30.5zM226 851q0 17 12 30t31 13q18 0 30 -13t12 -30t-12 -30.5t-30 -13.5q-19 0 -31 13.5t-12 30.5z" />
    <glyph glyph-name="Yacute" unicode="&#xdd;" horiz-adv-x="583" 
d="M320 0h-57v306l-259 402h71l218 -353l219 353h66l-258 -402v-306zM315 764h-47l101 144h72z" />
    <glyph glyph-name="Thorn" unicode="&#xde;" horiz-adv-x="578" 
d="M155 229h136q79 0 127.5 33.5t48.5 104.5q0 36 -13.5 62t-37 42t-56 23.5t-71.5 7.5h-134v-273zM98 708h57v-156h140q49 0 92 -10.5t74 -33t49 -57.5t18 -84q0 -47 -17 -82t-47.5 -58.5t-73 -35.5t-92.5 -12h-143v-179h-57v708z" />
    <glyph glyph-name="germandbls" unicode="&#xdf;" horiz-adv-x="595" 
d="M146 0h-54v542q0 42 10.5 83t35 72.5t64 51t97.5 19.5q38 0 72.5 -12t60.5 -34.5t41 -55.5t15 -74q0 -63 -32 -103t-90 -58v-2q37 -5 69 -21t55.5 -42.5t36.5 -63.5t13 -83q0 -52 -16.5 -94.5t-47.5 -72.5t-74 -46.5t-97 -16.5q-11 0 -26 1t-27 3v46q11 -2 24 -3t24 -1
q85 0 134 49t49 136q0 46 -14.5 81t-41 57.5t-63 34t-79.5 11.5h-11v48h11q63 0 105.5 34t42.5 102q0 32 -10.5 56.5t-29 41.5t-43.5 25.5t-53 8.5q-46 0 -75 -16.5t-46 -43t-23.5 -58.5t-6.5 -62v-540z" />
    <glyph glyph-name="agrave" unicode="&#xe0;" horiz-adv-x="527" 
d="M231 32q40 0 70 14.5t49 38t28.5 54t9.5 62.5v38h-35q-41 0 -83 -3.5t-77 -15t-57 -33.5t-22 -58q0 -27 10.5 -46t27.5 -30t37.5 -16t41.5 -5zM218 -13q-27 0 -55.5 7.5t-51.5 24.5t-38 43t-15 64q0 50 24.5 81t64.5 47.5t90.5 22t103.5 5.5h47v21q0 66 -34.5 98
t-97.5 32q-42 0 -77.5 -15t-61.5 -40l-30 36q29 29 74.5 46.5t99.5 17.5q39 0 71.5 -10.5t56.5 -31.5t37.5 -52.5t13.5 -74.5v-204q0 -27 2 -56t6 -49h-49q-3 18 -5.5 42.5t-2.5 43.5h-2q-29 -51 -71.5 -75t-99.5 -24zM150 708h72l101 -144h-47z" />
    <glyph glyph-name="aacute" unicode="&#xe1;" horiz-adv-x="527" 
d="M231 32q40 0 70 14.5t49 38t28.5 54t9.5 62.5v38h-35q-41 0 -83 -3.5t-77 -15t-57 -33.5t-22 -58q0 -27 10.5 -46t27.5 -30t37.5 -16t41.5 -5zM218 -13q-27 0 -55.5 7.5t-51.5 24.5t-38 43t-15 64q0 50 24.5 81t64.5 47.5t90.5 22t103.5 5.5h47v21q0 66 -34.5 98
t-97.5 32q-42 0 -77.5 -15t-61.5 -40l-30 36q29 29 74.5 46.5t99.5 17.5q39 0 71.5 -10.5t56.5 -31.5t37.5 -52.5t13.5 -74.5v-204q0 -27 2 -56t6 -49h-49q-3 18 -5.5 42.5t-2.5 43.5h-2q-29 -51 -71.5 -75t-99.5 -24zM267 564h-47l101 144h72z" />
    <glyph glyph-name="acircumflex" unicode="&#xe2;" horiz-adv-x="527" 
d="M231 32q40 0 70 14.5t49 38t28.5 54t9.5 62.5v38h-35q-41 0 -83 -3.5t-77 -15t-57 -33.5t-22 -58q0 -27 10.5 -46t27.5 -30t37.5 -16t41.5 -5zM218 -13q-27 0 -55.5 7.5t-51.5 24.5t-38 43t-15 64q0 50 24.5 81t64.5 47.5t90.5 22t103.5 5.5h47v21q0 66 -34.5 98
t-97.5 32q-42 0 -77.5 -15t-61.5 -40l-30 36q29 29 74.5 46.5t99.5 17.5q39 0 71.5 -10.5t56.5 -31.5t37.5 -52.5t13.5 -74.5v-204q0 -27 2 -56t6 -49h-49q-3 18 -5.5 42.5t-2.5 43.5h-2q-29 -51 -71.5 -75t-99.5 -24zM401 564h-53l-86 115l-86 -115h-53l107 144h64z" />
    <glyph glyph-name="atilde" unicode="&#xe3;" horiz-adv-x="527" 
d="M231 32q40 0 70 14.5t49 38t28.5 54t9.5 62.5v38h-35q-41 0 -83 -3.5t-77 -15t-57 -33.5t-22 -58q0 -27 10.5 -46t27.5 -30t37.5 -16t41.5 -5zM218 -13q-27 0 -55.5 7.5t-51.5 24.5t-38 43t-15 64q0 50 24.5 81t64.5 47.5t90.5 22t103.5 5.5h47v21q0 66 -34.5 98
t-97.5 32q-42 0 -77.5 -15t-61.5 -40l-30 36q29 29 74.5 46.5t99.5 17.5q39 0 71.5 -10.5t56.5 -31.5t37.5 -52.5t13.5 -74.5v-204q0 -27 2 -56t6 -49h-49q-3 18 -5.5 42.5t-2.5 43.5h-2q-29 -51 -71.5 -75t-99.5 -24zM112 581q6 38 25 66t57 28q16 0 34.5 -7.5t36.5 -16
t35 -16t29 -7.5q21 0 31 14.5t15 34.5h35q-6 -38 -25 -65.5t-56 -27.5q-16 0 -34.5 7.5t-36.5 16t-34.5 16t-29.5 7.5q-21 0 -31.5 -15t-15.5 -35h-35z" />
    <glyph glyph-name="adieresis" unicode="&#xe4;" horiz-adv-x="527" 
d="M231 32q40 0 70 14.5t49 38t28.5 54t9.5 62.5v38h-35q-41 0 -83 -3.5t-77 -15t-57 -33.5t-22 -58q0 -27 10.5 -46t27.5 -30t37.5 -16t41.5 -5zM218 -13q-27 0 -55.5 7.5t-51.5 24.5t-38 43t-15 64q0 50 24.5 81t64.5 47.5t90.5 22t103.5 5.5h47v21q0 66 -34.5 98
t-97.5 32q-42 0 -77.5 -15t-61.5 -40l-30 36q29 29 74.5 46.5t99.5 17.5q39 0 71.5 -10.5t56.5 -31.5t37.5 -52.5t13.5 -74.5v-204q0 -27 2 -56t6 -49h-49q-3 18 -5.5 42.5t-2.5 43.5h-2q-29 -51 -71.5 -75t-99.5 -24zM310 651q0 17 12 30t30 13q19 0 31 -13t12 -30
t-12 -30.5t-31 -13.5q-18 0 -30 13.5t-12 30.5zM129 651q0 17 12 30t31 13q18 0 30 -13t12 -30t-12 -30.5t-30 -13.5q-19 0 -31 13.5t-12 30.5z" />
    <glyph glyph-name="aring" unicode="&#xe5;" horiz-adv-x="527" 
d="M231 32q40 0 70 14.5t49 38t28.5 54t9.5 62.5v38h-35q-41 0 -83 -3.5t-77 -15t-57 -33.5t-22 -58q0 -27 10.5 -46t27.5 -30t37.5 -16t41.5 -5zM218 -13q-27 0 -55.5 7.5t-51.5 24.5t-38 43t-15 64q0 50 24.5 81t64.5 47.5t90.5 22t103.5 5.5h47v21q0 66 -34.5 98
t-97.5 32q-42 0 -77.5 -15t-61.5 -40l-30 36q29 29 74.5 46.5t99.5 17.5q39 0 71.5 -10.5t56.5 -31.5t37.5 -52.5t13.5 -74.5v-204q0 -27 2 -56t6 -49h-49q-3 18 -5.5 42.5t-2.5 43.5h-2q-29 -51 -71.5 -75t-99.5 -24zM326 650q0 27 -19 46t-46 19t-46 -19t-19 -46t19 -46
t46 -19t46 19t19 46zM357 650q0 -20 -7.5 -37.5t-21 -30.5t-31 -20t-36.5 -7q-20 0 -37 7t-30.5 20t-21 30.5t-7.5 37.5t7.5 37.5t21 30t30.5 20t37 7.5q19 0 36.5 -7.5t31 -20t21 -30t7.5 -37.5z" />
    <glyph glyph-name="ae" unicode="&#xe6;" horiz-adv-x="873" 
d="M760 266q0 36 -11 67t-31 53t-48.5 34.5t-64.5 12.5t-66 -15.5t-51.5 -40t-33.5 -54t-13 -57.5h319zM233 32q41 0 70.5 12t48 32.5t27.5 48.5t9 60v37h-36q-45 0 -87.5 -3t-76 -13.5t-53.5 -30.5t-20 -53q0 -26 10 -43.5t26.5 -28t37.5 -14.5t44 -4zM225 -13
q-30 0 -59.5 7.5t-53.5 23.5t-38.5 41.5t-14.5 61.5q0 46 24 74t63 43.5t88.5 21t99.5 6.5h54v24q0 66 -32 104.5t-98 38.5q-42 0 -79 -15t-65 -40l-31 35q31 29 79.5 47t102.5 18q64 0 105 -29t55 -80q26 49 74 79t106 30q52 0 91.5 -18.5t65.5 -50t39.5 -72.5t13.5 -87
v-15t-1 -13h-375q0 -37 12 -71t34.5 -60t54.5 -41.5t71 -15.5q51 0 89 23.5t60 57.5l39 -31q-38 -51 -84.5 -73.5t-103.5 -22.5q-69 0 -118.5 33t-72.5 90q-21 -64 -72 -94t-123 -30z" />
    <glyph glyph-name="ccedilla" unicode="&#xe7;" horiz-adv-x="494" 
d="M430 372q-21 27 -56 44t-73 17q-42 0 -76.5 -15.5t-59 -42.5t-37.5 -63.5t-13 -78.5t13 -78t37 -63t58 -42.5t76 -15.5q43 0 76.5 16t59.5 42l34 -31q-29 -33 -68.5 -52.5t-90.5 -21.5l-41 -65q9 3 18.5 4t21.5 1q15 0 30 -4t27 -13t19.5 -22.5t7.5 -31.5
q0 -25 -11 -41.5t-28 -26t-37.5 -13.5t-39.5 -4q-20 0 -46 5t-47 15l13 31q17 -8 37 -12t39 -4q10 0 22.5 2.5t23.5 8t18.5 15t7.5 23.5q0 23 -17.5 33t-42.5 10q-11 0 -25.5 -2.5t-25.5 -7.5l-15 13l56 87q-50 4 -90 24t-68.5 52.5t-43.5 75.5t-15 93q0 53 17.5 98
t49.5 77.5t76.5 51t98.5 18.5q51 0 94 -18t72 -55z" />
    <glyph glyph-name="egrave" unicode="&#xe8;" horiz-adv-x="567" 
d="M294 -13q-51 0 -94.5 18.5t-75 51.5t-49 78.5t-17.5 98.5q0 52 18 97t49 77.5t73 51t91 18.5q55 0 96 -18.5t68.5 -50t41.5 -72.5t14 -87v-28h-395q1 -37 14 -71t36.5 -60t57 -41.5t74.5 -15.5q54 0 91 20.5t69 58.5l36 -29q-39 -51 -88.5 -74t-109.5 -23zM455 265
q-2 37 -14 67.5t-33 53t-51 35t-69 12.5t-70.5 -15.5t-54 -39.5t-35 -54t-13.5 -59h340zM160 708h72l101 -144h-47z" />
    <glyph glyph-name="eacute" unicode="&#xe9;" horiz-adv-x="567" 
d="M294 -13q-51 0 -94.5 18.5t-75 51.5t-49 78.5t-17.5 98.5q0 52 18 97t49 77.5t73 51t91 18.5q55 0 96 -18.5t68.5 -50t41.5 -72.5t14 -87v-28h-395q1 -37 14 -71t36.5 -60t57 -41.5t74.5 -15.5q54 0 91 20.5t69 58.5l36 -29q-39 -51 -88.5 -74t-109.5 -23zM455 265
q-2 37 -14 67.5t-33 53t-51 35t-69 12.5t-70.5 -15.5t-54 -39.5t-35 -54t-13.5 -59h340zM300 564h-47l101 144h72z" />
    <glyph glyph-name="ecircumflex" unicode="&#xea;" horiz-adv-x="567" 
d="M294 -13q-51 0 -94.5 18.5t-75 51.5t-49 78.5t-17.5 98.5q0 52 18 97t49 77.5t73 51t91 18.5q55 0 96 -18.5t68.5 -50t41.5 -72.5t14 -87v-28h-395q1 -37 14 -71t36.5 -60t57 -41.5t74.5 -15.5q54 0 91 20.5t69 58.5l36 -29q-39 -51 -88.5 -74t-109.5 -23zM455 265
q-2 37 -14 67.5t-33 53t-51 35t-69 12.5t-70.5 -15.5t-54 -39.5t-35 -54t-13.5 -59h340zM434 564h-53l-86 115l-86 -115h-53l107 144h64z" />
    <glyph glyph-name="edieresis" unicode="&#xeb;" horiz-adv-x="567" 
d="M294 -13q-51 0 -94.5 18.5t-75 51.5t-49 78.5t-17.5 98.5q0 52 18 97t49 77.5t73 51t91 18.5q55 0 96 -18.5t68.5 -50t41.5 -72.5t14 -87v-28h-395q1 -37 14 -71t36.5 -60t57 -41.5t74.5 -15.5q54 0 91 20.5t69 58.5l36 -29q-39 -51 -88.5 -74t-109.5 -23zM455 265
q-2 37 -14 67.5t-33 53t-51 35t-69 12.5t-70.5 -15.5t-54 -39.5t-35 -54t-13.5 -59h340zM342 651q0 17 12 30t30 13q19 0 31 -13t12 -30t-12 -30.5t-31 -13.5q-18 0 -30 13.5t-12 30.5zM161 651q0 17 12 30t31 13q18 0 30 -13t12 -30t-12 -30.5t-30 -13.5q-19 0 -31 13.5
t-12 30.5z" />
    <glyph glyph-name="igrave" unicode="&#xec;" horiz-adv-x="243" 
d="M149 0h-55v466h55v-466zM-25 708h72l101 -144h-47z" />
    <glyph glyph-name="iacute" unicode="&#xed;" horiz-adv-x="243" 
d="M149 0h-55v466h55v-466zM141 564h-47l101 144h72z" />
    <glyph glyph-name="icircumflex" unicode="&#xee;" horiz-adv-x="243" 
d="M149 0h-55v466h55v-466zM262 564h-53l-86 115l-86 -115h-53l107 144h64z" />
    <glyph glyph-name="idieresis" unicode="&#xef;" horiz-adv-x="243" 
d="M149 0h-55v466h55v-466zM170 651q0 17 12 30t30 13q19 0 31 -13t12 -30t-12 -30.5t-31 -13.5q-18 0 -30 13.5t-12 30.5zM-11 651q0 17 12 30t31 13q18 0 30 -13t12 -30t-12 -30.5t-30 -13.5q-19 0 -31 13.5t-12 30.5z" />
    <glyph glyph-name="eth" unicode="&#xf0;" horiz-adv-x="609" 
d="M348 662q35 -33 70 -78.5t63 -99.5t45.5 -114t17.5 -123q0 -48 -14.5 -94.5t-44.5 -83.5t-76.5 -59.5t-110.5 -22.5q-54 0 -99 18.5t-78 51.5t-51 78t-18 98t18 98t51 77.5t78 51t99 18.5q88 0 159 -63l3 2q-28 63 -71.5 120.5t-89.5 99.5l-112 -58l-28 29l110 58
q-26 25 -52 44.5t-47 33.5l46 30q26 -19 51 -39.5t48 -42.5l103 54l33 -28zM109 233q0 -42 13 -78t38 -62.5t59.5 -42t78.5 -15.5t79 15.5t59.5 42t37.5 62.5t13 78t-13 78t-37.5 62.5t-59.5 41.5t-79 15t-78.5 -15t-59.5 -41.5t-38 -62.5t-13 -78z" />
    <glyph glyph-name="ntilde" unicode="&#xf1;" horiz-adv-x="578" 
d="M142 466q2 -20 3 -47t1 -46h2q10 24 27.5 43.5t40 33t48 21t51.5 7.5q46 0 79 -15t54 -41t31 -61.5t10 -76.5v-284h-54v264q0 34 -6 65t-21 53.5t-40.5 36t-64.5 13.5q-30 0 -58 -12t-49.5 -36.5t-34 -61t-12.5 -85.5v-237h-55v359q0 20 -1 51.5t-3 55.5h52zM144 581
q6 38 25 66t57 28q16 0 34.5 -7.5t36.5 -16t35 -16t29 -7.5q21 0 31 14.5t15 34.5h35q-6 -38 -25 -65.5t-56 -27.5q-16 0 -34.5 7.5t-36.5 16t-34.5 16t-29.5 7.5q-21 0 -31.5 -15t-15.5 -35h-35z" />
    <glyph glyph-name="ograve" unicode="&#xf2;" horiz-adv-x="609" 
d="M494 233q0 42 -13 78t-38 62.5t-60 42t-79 15.5t-78.5 -15.5t-59.5 -42t-38 -62.5t-13 -78t13 -78t38 -62.5t59.5 -41.5t78.5 -15t79 15t60 41.5t38 62.5t13 78zM550 233q0 -53 -18 -98t-50.5 -78t-78 -51.5t-99.5 -18.5t-99 18.5t-77.5 51.5t-50.5 78t-18 98t18 98
t50.5 77.5t77.5 51t99 18.5t99.5 -18.5t78 -51t50.5 -77.5t18 -98zM171 708h72l101 -144h-47z" />
    <glyph glyph-name="oacute" unicode="&#xf3;" horiz-adv-x="609" 
d="M494 233q0 42 -13 78t-38 62.5t-60 42t-79 15.5t-78.5 -15.5t-59.5 -42t-38 -62.5t-13 -78t13 -78t38 -62.5t59.5 -41.5t78.5 -15t79 15t60 41.5t38 62.5t13 78zM550 233q0 -53 -18 -98t-50.5 -78t-78 -51.5t-99.5 -18.5t-99 18.5t-77.5 51.5t-50.5 78t-18 98t18 98
t50.5 77.5t77.5 51t99 18.5t99.5 -18.5t78 -51t50.5 -77.5t18 -98zM312 564h-47l101 144h72z" />
    <glyph glyph-name="ocircumflex" unicode="&#xf4;" horiz-adv-x="609" 
d="M494 233q0 42 -13 78t-38 62.5t-60 42t-79 15.5t-78.5 -15.5t-59.5 -42t-38 -62.5t-13 -78t13 -78t38 -62.5t59.5 -41.5t78.5 -15t79 15t60 41.5t38 62.5t13 78zM550 233q0 -53 -18 -98t-50.5 -78t-78 -51.5t-99.5 -18.5t-99 18.5t-77.5 51.5t-50.5 78t-18 98t18 98
t50.5 77.5t77.5 51t99 18.5t99.5 -18.5t78 -51t50.5 -77.5t18 -98zM443 564h-53l-86 115l-86 -115h-53l107 144h64z" />
    <glyph glyph-name="otilde" unicode="&#xf5;" horiz-adv-x="609" 
d="M494 233q0 42 -13 78t-38 62.5t-60 42t-79 15.5t-78.5 -15.5t-59.5 -42t-38 -62.5t-13 -78t13 -78t38 -62.5t59.5 -41.5t78.5 -15t79 15t60 41.5t38 62.5t13 78zM550 233q0 -53 -18 -98t-50.5 -78t-78 -51.5t-99.5 -18.5t-99 18.5t-77.5 51.5t-50.5 78t-18 98t18 98
t50.5 77.5t77.5 51t99 18.5t99.5 -18.5t78 -51t50.5 -77.5t18 -98zM156 581q6 38 25 66t57 28q16 0 34.5 -7.5t36.5 -16t35 -16t29 -7.5q21 0 31 14.5t15 34.5h35q-6 -38 -25 -65.5t-56 -27.5q-16 0 -34.5 7.5t-36.5 16t-34.5 16t-29.5 7.5q-21 0 -31.5 -15t-15.5 -35h-35z
" />
    <glyph glyph-name="odieresis" unicode="&#xf6;" horiz-adv-x="609" 
d="M494 233q0 42 -13 78t-38 62.5t-60 42t-79 15.5t-78.5 -15.5t-59.5 -42t-38 -62.5t-13 -78t13 -78t38 -62.5t59.5 -41.5t78.5 -15t79 15t60 41.5t38 62.5t13 78zM550 233q0 -53 -18 -98t-50.5 -78t-78 -51.5t-99.5 -18.5t-99 18.5t-77.5 51.5t-50.5 78t-18 98t18 98
t50.5 77.5t77.5 51t99 18.5t99.5 -18.5t78 -51t50.5 -77.5t18 -98zM353 651q0 17 12 30t30 13q19 0 31 -13t12 -30t-12 -30.5t-31 -13.5q-18 0 -30 13.5t-12 30.5zM172 651q0 17 12 30t31 13q18 0 30 -13t12 -30t-12 -30.5t-30 -13.5q-19 0 -31 13.5t-12 30.5z" />
    <glyph glyph-name="divide" unicode="&#xf7;" horiz-adv-x="666" 
d="M382 140q0 -20 -14 -35t-35 -15t-34.5 15t-13.5 35t13.5 34.5t34.5 14.5t35 -15t14 -34zM382 466q0 -19 -14 -34t-35 -15t-34.5 15t-13.5 34q0 20 13.5 35t34.5 15t35 -15t14 -35zM584 279h-501v48h501v-48z" />
    <glyph glyph-name="oslash" unicode="&#xf8;" horiz-adv-x="609" 
d="M303 32q44 0 80 15.5t61 43t38.5 64t13.5 78.5q0 36 -10.5 70t-31.5 59l-279 -284q24 -22 56.5 -34t71.5 -12zM430 390q-22 21 -55 32.5t-71 11.5q-44 0 -79.5 -16t-60.5 -43t-38 -63.5t-13 -78.5q0 -36 9.5 -69.5t28.5 -57.5zM49 2l66 68q-27 32 -42 73.5t-15 89.5
q0 53 18 98t50.5 77.5t77.5 51t99 18.5q95 0 161 -54l64 66l26 -26l-64 -66q28 -31 44.5 -72.5t16.5 -92.5q0 -53 -18.5 -98t-51.5 -78t-78.5 -51.5t-99.5 -18.5q-48 0 -89 15.5t-72 41.5l-66 -67z" />
    <glyph glyph-name="ugrave" unicode="&#xf9;" horiz-adv-x="578" 
d="M435 0q-2 19 -3 46.5t-1 45.5h-2q-10 -24 -27.5 -43.5t-39 -33t-47 -21t-52.5 -7.5q-46 0 -79 15t-54.5 41t-31.5 61.5t-10 76.5v285h55v-264q0 -35 6 -65.5t21 -53.5t40.5 -36.5t64.5 -13.5q30 0 58 12.5t49 37t34 61t13 85.5v237h54v-359q0 -20 1.5 -52t3.5 -55h-53z
M154 708h72l101 -144h-47z" />
    <glyph glyph-name="uacute" unicode="&#xfa;" horiz-adv-x="578" 
d="M435 0q-2 19 -3 46.5t-1 45.5h-2q-10 -24 -27.5 -43.5t-39 -33t-47 -21t-52.5 -7.5q-46 0 -79 15t-54.5 41t-31.5 61.5t-10 76.5v285h55v-264q0 -35 6 -65.5t21 -53.5t40.5 -36.5t64.5 -13.5q30 0 58 12.5t49 37t34 61t13 85.5v237h54v-359q0 -20 1.5 -52t3.5 -55h-53z
M289 564h-47l101 144h72z" />
    <glyph glyph-name="ucircumflex" unicode="&#xfb;" horiz-adv-x="578" 
d="M435 0q-2 19 -3 46.5t-1 45.5h-2q-10 -24 -27.5 -43.5t-39 -33t-47 -21t-52.5 -7.5q-46 0 -79 15t-54.5 41t-31.5 61.5t-10 76.5v285h55v-264q0 -35 6 -65.5t21 -53.5t40.5 -36.5t64.5 -13.5q30 0 58 12.5t49 37t34 61t13 85.5v237h54v-359q0 -20 1.5 -52t3.5 -55h-53z
M424 564h-53l-86 115l-86 -115h-53l107 144h64z" />
    <glyph glyph-name="udieresis" unicode="&#xfc;" horiz-adv-x="578" 
d="M435 0q-2 19 -3 46.5t-1 45.5h-2q-10 -24 -27.5 -43.5t-39 -33t-47 -21t-52.5 -7.5q-46 0 -79 15t-54.5 41t-31.5 61.5t-10 76.5v285h55v-264q0 -35 6 -65.5t21 -53.5t40.5 -36.5t64.5 -13.5q30 0 58 12.5t49 37t34 61t13 85.5v237h54v-359q0 -20 1.5 -52t3.5 -55h-53z
M334 651q0 17 12 30t30 13q19 0 31 -13t12 -30t-12 -30.5t-31 -13.5q-18 0 -30 13.5t-12 30.5zM153 651q0 17 12 30t31 13q18 0 30 -13t12 -30t-12 -30.5t-30 -13.5q-19 0 -31 13.5t-12 30.5z" />
    <glyph glyph-name="yacute" unicode="&#xfd;" horiz-adv-x="470" 
d="M84 -241q-14 0 -28 2t-27 5l7 49q22 -8 46 -8q37 0 57 24t34 61l40 105l-195 469h61l162 -411l2 2l150 409h59l-232 -596q-20 -51 -50.5 -81t-85.5 -30zM251 564h-47l101 144h72z" />
    <glyph glyph-name="thorn" unicode="&#xfe;" horiz-adv-x="631" 
d="M516 233q0 41 -13 77t-37 62.5t-58.5 42t-77.5 15.5q-42 0 -76.5 -15.5t-59 -42t-38 -62.5t-13.5 -77t13.5 -77t38 -63t59 -42.5t76.5 -15.5q43 0 77.5 15.5t58.5 42.5t37 63t13 77zM334 -13q-57 0 -106 26.5t-78 78.5h-2v-332h-53v996h53v-385h2q30 54 79.5 80.5
t104.5 26.5q52 0 95.5 -18.5t75.5 -51t50 -77.5t18 -98t-18 -98t-50 -78t-75.5 -51.5t-95.5 -18.5z" />
    <glyph glyph-name="ydieresis" unicode="&#xff;" horiz-adv-x="470" 
d="M84 -241q-14 0 -28 2t-27 5l7 49q22 -8 46 -8q37 0 57 24t34 61l40 105l-195 469h61l162 -411l2 2l150 409h59l-232 -596q-20 -51 -50.5 -81t-85.5 -30zM290 651q0 17 12 30t30 13q19 0 31 -13t12 -30t-12 -30.5t-31 -13.5q-18 0 -30 13.5t-12 30.5zM109 651q0 17 12 30
t31 13q18 0 30 -13t12 -30t-12 -30.5t-30 -13.5q-19 0 -31 13.5t-12 30.5z" />
    <glyph glyph-name="Amacron" unicode="&#x100;" horiz-adv-x="690" 
d="M176 243h337l-167 405zM75 0h-63l307 708h57l301 -708h-63l-80 191h-379zM476 806h-258v44h258v-44z" />
    <glyph glyph-name="amacron" unicode="&#x101;" horiz-adv-x="527" 
d="M231 32q40 0 70 14.5t49 38t28.5 54t9.5 62.5v38h-35q-41 0 -83 -3.5t-77 -15t-57 -33.5t-22 -58q0 -27 10.5 -46t27.5 -30t37.5 -16t41.5 -5zM218 -13q-27 0 -55.5 7.5t-51.5 24.5t-38 43t-15 64q0 50 24.5 81t64.5 47.5t90.5 22t103.5 5.5h47v21q0 66 -34.5 98
t-97.5 32q-42 0 -77.5 -15t-61.5 -40l-30 36q29 29 74.5 46.5t99.5 17.5q39 0 71.5 -10.5t56.5 -31.5t37.5 -52.5t13.5 -74.5v-204q0 -27 2 -56t6 -49h-49q-3 18 -5.5 42.5t-2.5 43.5h-2q-29 -51 -71.5 -75t-99.5 -24zM396 606h-258v44h258v-44z" />
    <glyph glyph-name="Abreve" unicode="&#x102;" horiz-adv-x="690" 
d="M176 243h337l-167 405zM75 0h-63l307 708h57l301 -708h-63l-80 191h-379zM488 905q-5 -63 -43 -96.5t-98 -33.5q-58 0 -96.5 33.5t-43.5 96.5h37q8 -43 36.5 -64.5t66.5 -21.5q40 0 68.5 20.5t36.5 65.5h36z" />
    <glyph glyph-name="abreve" unicode="&#x103;" horiz-adv-x="527" 
d="M231 32q40 0 70 14.5t49 38t28.5 54t9.5 62.5v38h-35q-41 0 -83 -3.5t-77 -15t-57 -33.5t-22 -58q0 -27 10.5 -46t27.5 -30t37.5 -16t41.5 -5zM218 -13q-27 0 -55.5 7.5t-51.5 24.5t-38 43t-15 64q0 50 24.5 81t64.5 47.5t90.5 22t103.5 5.5h47v21q0 66 -34.5 98
t-97.5 32q-42 0 -77.5 -15t-61.5 -40l-30 36q29 29 74.5 46.5t99.5 17.5q39 0 71.5 -10.5t56.5 -31.5t37.5 -52.5t13.5 -74.5v-204q0 -27 2 -56t6 -49h-49q-3 18 -5.5 42.5t-2.5 43.5h-2q-29 -51 -71.5 -75t-99.5 -24zM410 705q-5 -63 -43 -96.5t-98 -33.5q-58 0 -96.5 33.5
t-43.5 96.5h37q8 -43 36.5 -64.5t66.5 -21.5q40 0 68.5 20.5t36.5 65.5h36z" />
    <glyph glyph-name="Aogonek" unicode="&#x104;" horiz-adv-x="690" 
d="M176 243h337l-167 405zM319 708h57l301 -708q-7 -7 -23 -12.5t-20 -10.5q-29 -31 -45 -54.5t-16 -49.5q0 -24 16 -38.5t39 -14.5q32 0 56 24l16 -32q-17 -17 -40 -26t-47 -9q-35 0 -61.5 23t-26.5 61q0 20 8 39t20.5 36.5t28.5 33.5t32 30l-80 191h-379l-80 -191h-63z
" />
    <glyph glyph-name="aogonek" unicode="&#x105;" horiz-adv-x="527" 
d="M231 32q40 0 70 14.5t49 38t28.5 54t9.5 62.5v38h-35q-41 0 -83 -3.5t-77 -15t-57 -33.5t-22 -58q0 -27 10.5 -46t27.5 -30t37.5 -16t41.5 -5zM218 -13q-27 0 -55.5 7.5t-51.5 24.5t-38 43t-15 64q0 49 24 79.5t63 47.5t89 23t102 6h52v21q0 66 -34.5 98t-97.5 32
q-42 0 -77.5 -15t-61.5 -40l-30 36q29 29 74.5 46.5t99.5 17.5q39 0 71.5 -10.5t56.5 -31.5t37.5 -52.5t13.5 -74.5v-204q0 -27 2 -56t6 -49h-8q-39 -40 -60 -68t-21 -59q0 -24 15.5 -38.5t38.5 -14.5q16 0 31 6.5t25 17.5l17 -32q-17 -17 -40 -26t-48 -9q-35 0 -61.5 23
t-26.5 61q0 20 8 39t21 36.5t29 33.5t32 30h-1q-3 18 -5.5 42.5t-2.5 43.5h-2q-29 -51 -71.5 -75t-99.5 -24z" />
    <glyph glyph-name="Cacute" unicode="&#x106;" horiz-adv-x="721" 
d="M684 105q-45 -57 -106.5 -90.5t-151.5 -33.5q-80 0 -147 28t-115.5 77.5t-75.5 118t-27 149.5t27.5 149.5t76.5 118t116 77.5t146 28q78 0 142 -26t102 -77l-41 -38q-31 39 -83.5 64.5t-118.5 25.5q-71 0 -128 -25.5t-96.5 -69.5t-61 -102.5t-21.5 -124.5
q0 -65 21.5 -123.5t61 -102.5t96.5 -70t128 -26q62 0 115.5 22.5t101.5 81.5zM423 764h-47l101 144h72z" />
    <glyph glyph-name="cacute" unicode="&#x107;" horiz-adv-x="494" 
d="M430 372q-21 27 -56 43t-73 16q-42 0 -76.5 -15.5t-59 -42t-37.5 -62.5t-13 -78t13 -78t37 -62.5t58 -41.5t76 -15q43 0 76.5 15t59.5 41l34 -31q-30 -35 -72.5 -54.5t-97.5 -19.5t-99 18.5t-75.5 51.5t-48.5 78t-17 98t17.5 98t49.5 77.5t76 51t98 18.5q51 0 94 -18
t72 -55zM302 564h-47l101 144h72z" />
    <glyph glyph-name="Ccircumflex" unicode="&#x108;" horiz-adv-x="721" 
d="M684 105q-45 -57 -106.5 -90.5t-151.5 -33.5q-80 0 -147 28t-115.5 77.5t-75.5 118t-27 149.5t27.5 149.5t76.5 118t116 77.5t146 28q78 0 142 -26t102 -77l-41 -38q-31 39 -83.5 64.5t-118.5 25.5q-71 0 -128 -25.5t-96.5 -69.5t-61 -102.5t-21.5 -124.5
q0 -65 21.5 -123.5t61 -102.5t96.5 -70t128 -26q62 0 115.5 22.5t101.5 81.5zM565 764h-53l-86 115l-86 -115h-53l107 144h64z" />
    <glyph glyph-name="ccircumflex" unicode="&#x109;" horiz-adv-x="494" 
d="M430 372q-21 27 -56 43t-73 16q-42 0 -76.5 -15.5t-59 -42t-37.5 -62.5t-13 -78t13 -78t37 -62.5t58 -41.5t76 -15q43 0 76.5 15t59.5 41l34 -31q-30 -35 -72.5 -54.5t-97.5 -19.5t-99 18.5t-75.5 51.5t-48.5 78t-17 98t17.5 98t49.5 77.5t76 51t98 18.5q51 0 94 -18
t72 -55zM439 564h-53l-86 115l-86 -115h-53l107 144h64z" />
    <glyph glyph-name="Cdotaccent" unicode="&#x10a;" horiz-adv-x="721" 
d="M684 105q-45 -57 -106.5 -90.5t-151.5 -33.5q-80 0 -147 28t-115.5 77.5t-75.5 118t-27 149.5t27.5 149.5t76.5 118t116 77.5t146 28q78 0 142 -26t102 -77l-41 -38q-31 39 -83.5 64.5t-118.5 25.5q-71 0 -128 -25.5t-96.5 -69.5t-61 -102.5t-21.5 -124.5
q0 -65 21.5 -123.5t61 -102.5t96.5 -70t128 -26q62 0 115.5 22.5t101.5 81.5zM462 851q0 -18 -13 -29.5t-28 -11.5t-28 11.5t-13 29.5t13 29.5t28 11.5t28 -11.5t13 -29.5z" />
    <glyph glyph-name="cdotaccent" unicode="&#x10b;" horiz-adv-x="494" 
d="M430 372q-21 27 -56 43t-73 16q-42 0 -76.5 -15.5t-59 -42t-37.5 -62.5t-13 -78t13 -78t37 -62.5t58 -41.5t76 -15q43 0 76.5 15t59.5 41l34 -31q-30 -35 -72.5 -54.5t-97.5 -19.5t-99 18.5t-75.5 51.5t-48.5 78t-17 98t17.5 98t49.5 77.5t76 51t98 18.5q51 0 94 -18
t72 -55zM336 651q0 -18 -13 -29.5t-28 -11.5t-28 11.5t-13 29.5t13 29.5t28 11.5t28 -11.5t13 -29.5z" />
    <glyph glyph-name="Ccaron" unicode="&#x10c;" horiz-adv-x="721" 
d="M684 105q-45 -57 -106.5 -90.5t-151.5 -33.5q-80 0 -147 28t-115.5 77.5t-75.5 118t-27 149.5t27.5 149.5t76.5 118t116 77.5t146 28q78 0 142 -26t102 -77l-41 -38q-31 39 -83.5 64.5t-118.5 25.5q-71 0 -128 -25.5t-96.5 -69.5t-61 -102.5t-21.5 -124.5
q0 -65 21.5 -123.5t61 -102.5t96.5 -70t128 -26q62 0 115.5 22.5t101.5 81.5zM458 764h-64l-107 144h53l86 -115l86 115h53z" />
    <glyph glyph-name="ccaron" unicode="&#x10d;" horiz-adv-x="494" 
d="M430 372q-21 27 -56 43t-73 16q-42 0 -76.5 -15.5t-59 -42t-37.5 -62.5t-13 -78t13 -78t37 -62.5t58 -41.5t76 -15q43 0 76.5 15t59.5 41l34 -31q-30 -35 -72.5 -54.5t-97.5 -19.5t-99 18.5t-75.5 51.5t-48.5 78t-17 98t17.5 98t49.5 77.5t76 51t98 18.5q51 0 94 -18
t72 -55zM332 564h-64l-107 144h53l86 -115l86 115h53z" />
    <glyph glyph-name="Dcaron" unicode="&#x10e;" horiz-adv-x="761" 
d="M155 51h152q79 0 141 23t105 64t65 96t22 120t-22 120.5t-65 96t-105 63.5t-141 23h-152v-606zM98 708h224q71 0 139 -21.5t121 -65.5t85.5 -110.5t32.5 -156.5t-32.5 -156.5t-85.5 -110.5t-121 -65.5t-139 -21.5h-224v708zM381 764h-64l-107 144h53l86 -115l86 115h53z
" />
    <glyph glyph-name="dcaron" unicode="&#x10f;" horiz-adv-x="668" 
d="M115 233q0 -41 12.5 -77.5t36.5 -63.5t58.5 -42.5t78.5 -15.5q41 0 76 15.5t60 42t39 63t14 78.5t-14 78.5t-39 63.5t-60 42.5t-76 15.5q-44 0 -78.5 -16t-58.5 -43t-36.5 -63.5t-12.5 -77.5zM482 92q-30 -51 -80.5 -78t-105.5 -27q-53 0 -97 19t-75.5 52t-48.5 78
t-17 97t17 96.5t48.5 77.5t75.5 52t97 19q55 0 105.5 -26.5t80.5 -80.5h2v385h55v-756h-55v92h-2zM642 523h-45l59 185h57z" />
    <glyph glyph-name="Dcroat" unicode="&#x110;" horiz-adv-x="761" 
d="M149 52h150q80 0 142.5 23t105 63.5t64.5 95.5t22 120q0 64 -22 119.5t-64.5 96t-105 63.5t-142.5 23h-150v-262h261v-44h-261v-298zM92 350h-75v44h75v314h225q71 0 139 -21.5t121 -65.5t85 -110.5t32 -156.5t-32 -156.5t-85 -110.5t-121 -65.5t-139 -21.5h-225v350z
" />
    <glyph glyph-name="dcroat" unicode="&#x111;" horiz-adv-x="634" 
d="M115 233q0 -41 12.5 -77.5t36.5 -63.5t58.5 -42.5t78.5 -15.5q41 0 76 15.5t60 42t39 63t14 78.5t-14 78.5t-39 63.5t-60 42.5t-76 15.5q-44 0 -78.5 -16t-58.5 -43t-36.5 -63.5t-12.5 -77.5zM484 610v146h55v-146h60v-40h-60v-570h-55v92h-2q-30 -51 -80.5 -78
t-105.5 -27q-53 0 -97 19t-75.5 52t-48.5 78t-17 97t17 96.5t48.5 77.5t75.5 52t97 19q55 0 105.5 -26.5t80.5 -80.5h2v199h-173v40h173z" />
    <glyph glyph-name="Emacron" unicode="&#x112;" horiz-adv-x="591" 
d="M154 51h388v-51h-444v708h431v-51h-375v-264h351v-50h-351v-292zM445 806h-258v44h258v-44z" />
    <glyph glyph-name="emacron" unicode="&#x113;" horiz-adv-x="567" 
d="M294 -13q-51 0 -94.5 18.5t-75 51.5t-49 78.5t-17.5 98.5q0 52 18 97t49 77.5t73 51t91 18.5q55 0 96 -18.5t68.5 -50t41.5 -72.5t14 -87v-28h-395q1 -37 14 -71t36.5 -60t57 -41.5t74.5 -15.5q54 0 91 20.5t69 58.5l36 -29q-39 -51 -88.5 -74t-109.5 -23zM455 265
q-2 37 -14 67.5t-33 53t-51 35t-69 12.5t-70.5 -15.5t-54 -39.5t-35 -54t-13.5 -59h340zM422 606h-258v44h258v-44z" />
    <glyph glyph-name="Ebreve" unicode="&#x114;" horiz-adv-x="591" 
d="M154 51h388v-51h-444v708h431v-51h-375v-264h351v-50h-351v-292zM456 905q-5 -63 -43 -96.5t-98 -33.5q-58 0 -96.5 33.5t-43.5 96.5h37q8 -43 36.5 -64.5t66.5 -21.5q40 0 68.5 20.5t36.5 65.5h36z" />
    <glyph glyph-name="ebreve" unicode="&#x115;" horiz-adv-x="567" 
d="M294 -13q-51 0 -94.5 18.5t-75 51.5t-49 78.5t-17.5 98.5q0 52 18 97t49 77.5t73 51t91 18.5q55 0 96 -18.5t68.5 -50t41.5 -72.5t14 -87v-28h-395q1 -37 14 -71t36.5 -60t57 -41.5t74.5 -15.5q54 0 91 20.5t69 58.5l36 -29q-39 -51 -88.5 -74t-109.5 -23zM455 265
q-2 37 -14 67.5t-33 53t-51 35t-69 12.5t-70.5 -15.5t-54 -39.5t-35 -54t-13.5 -59h340zM433 705q-5 -63 -43 -96.5t-98 -33.5q-58 0 -96.5 33.5t-43.5 96.5h37q8 -43 36.5 -64.5t66.5 -21.5q40 0 68.5 20.5t36.5 65.5h36z" />
    <glyph glyph-name="Edotaccent" unicode="&#x116;" horiz-adv-x="591" 
d="M154 51h388v-51h-444v708h431v-51h-375v-264h351v-50h-351v-292zM361 851q0 -18 -13 -29.5t-28 -11.5t-28 11.5t-13 29.5t13 29.5t28 11.5t28 -11.5t13 -29.5z" />
    <glyph glyph-name="edotaccent" unicode="&#x117;" horiz-adv-x="567" 
d="M294 -13q-51 0 -94.5 18.5t-75 51.5t-49 78.5t-17.5 98.5q0 52 18 97t49 77.5t73 51t91 18.5q55 0 96 -18.5t68.5 -50t41.5 -72.5t14 -87v-28h-395q1 -37 14 -71t36.5 -60t57 -41.5t74.5 -15.5q54 0 91 20.5t69 58.5l36 -29q-39 -51 -88.5 -74t-109.5 -23zM455 265
q-2 37 -14 67.5t-33 53t-51 35t-69 12.5t-70.5 -15.5t-54 -39.5t-35 -54t-13.5 -59h340zM333 651q0 -18 -13 -29.5t-28 -11.5t-28 11.5t-13 29.5t13 29.5t28 11.5t28 -11.5t13 -29.5z" />
    <glyph glyph-name="Eogonek" unicode="&#x118;" horiz-adv-x="591" 
d="M572 -188q-17 -17 -40.5 -26t-47.5 -9q-35 0 -61.5 23t-26.5 61q0 20 8 39t21 36.5t29 33.5t32 30h-388v708h431v-51h-375v-264h351v-50h-351v-292h388v-51h-16q-39 -40 -60 -68t-21 -59q0 -24 15.5 -38.5t38.5 -14.5q33 0 56 24z" />
    <glyph glyph-name="eogonek" unicode="&#x119;" horiz-adv-x="567" 
d="M455 265q-2 37 -14 67.5t-33 53t-51 35t-69 12.5t-70.5 -15.5t-54 -39.5t-35 -54t-13.5 -59h340zM312 -223q-35 0 -61.5 23t-26.5 61q0 37 23 69t52 58h-22q-48 3 -88 23t-69.5 52.5t-45.5 76t-16 94.5q0 52 18 97t49 77.5t73 51t91 18.5q55 0 96 -18.5t68.5 -50
t41.5 -72.5t14 -87v-28h-395q1 -37 14 -71t36.5 -60t57 -41.5t74.5 -15.5q54 0 93.5 23.5t62.5 58.5l40 -32q-30 -39 -66.5 -61.5t-79.5 -30.5q-35 -36 -54 -63t-19 -56q0 -24 15.5 -38.5t38.5 -14.5q33 0 57 24l16 -32q-17 -17 -40 -26t-48 -9z" />
    <glyph glyph-name="Ecaron" unicode="&#x11a;" horiz-adv-x="591" 
d="M154 51h388v-51h-444v708h431v-51h-375v-264h351v-50h-351v-292zM348 764h-64l-107 144h53l86 -115l86 115h53z" />
    <glyph glyph-name="ecaron" unicode="&#x11b;" horiz-adv-x="567" 
d="M294 -13q-51 0 -94.5 18.5t-75 51.5t-49 78.5t-17.5 98.5q0 52 18 97t49 77.5t73 51t91 18.5q55 0 96 -18.5t68.5 -50t41.5 -72.5t14 -87v-28h-395q1 -37 14 -71t36.5 -60t57 -41.5t74.5 -15.5q54 0 91 20.5t69 58.5l36 -29q-39 -51 -88.5 -74t-109.5 -23zM455 265
q-2 37 -14 67.5t-33 53t-51 35t-69 12.5t-70.5 -15.5t-54 -39.5t-35 -54t-13.5 -59h340zM323 564h-64l-107 144h53l86 -115l86 115h53z" />
    <glyph glyph-name="Gcircumflex" unicode="&#x11c;" horiz-adv-x="784" 
d="M641 596q-38 38 -92.5 59t-118.5 21q-71 0 -128.5 -25.5t-97.5 -69.5t-61.5 -102.5t-21.5 -123.5t21.5 -124t61.5 -103t97.5 -70t130.5 -26q64 0 116 13.5t87 34.5v234h-170v50h227v-316q-54 -32 -120 -49.5t-141 -17.5q-81 0 -149 28t-117 78t-76.5 118.5t-27.5 149.5
q0 80 27.5 148.5t77 118t117 77.5t147.5 28q81 0 141.5 -23.5t105.5 -68.5zM570 764h-53l-86 115l-86 -115h-53l107 144h64z" />
    <glyph glyph-name="gcircumflex" unicode="&#x11d;" horiz-adv-x="630" 
d="M115 237q0 -39 12.5 -74.5t36.5 -62.5t58.5 -42.5t78.5 -15.5q41 0 76 14.5t60 41t39 62t14 77.5q0 39 -14 74.5t-39 62.5t-60 43t-76 16q-44 0 -78.5 -16t-58.5 -43t-36.5 -62.5t-12.5 -74.5zM109 -114q35 -38 83.5 -59.5t102.5 -21.5q53 0 89.5 16.5t58.5 45t31.5 66
t9.5 78.5v91h-2q-28 -51 -78.5 -78.5t-107.5 -27.5q-53 0 -97 18t-75.5 50t-48.5 76t-17 95t17 95t48.5 77t75.5 52t97 19q56 0 106.5 -27t79.5 -80h2v95h55v-455q0 -44 -11 -89t-38.5 -81.5t-75.5 -60t-121 -23.5q-66 0 -122.5 24.5t-96.5 67.5zM446 564h-53l-86 115
l-86 -115h-53l107 144h64z" />
    <glyph glyph-name="Gbreve" unicode="&#x11e;" horiz-adv-x="784" 
d="M641 596q-38 38 -92.5 59t-118.5 21q-71 0 -128.5 -25.5t-97.5 -69.5t-61.5 -102.5t-21.5 -123.5t21.5 -124t61.5 -103t97.5 -70t130.5 -26q64 0 116 13.5t87 34.5v234h-170v50h227v-316q-54 -32 -120 -49.5t-141 -17.5q-81 0 -149 28t-117 78t-76.5 118.5t-27.5 149.5
q0 80 27.5 148.5t77 118t117 77.5t147.5 28q81 0 141.5 -23.5t105.5 -68.5zM570 905q-5 -63 -43 -96.5t-98 -33.5q-58 0 -96.5 33.5t-43.5 96.5h37q8 -43 36.5 -64.5t66.5 -21.5q40 0 68.5 20.5t36.5 65.5h36z" />
    <glyph glyph-name="gbreve" unicode="&#x11f;" horiz-adv-x="630" 
d="M115 237q0 -39 12.5 -74.5t36.5 -62.5t58.5 -42.5t78.5 -15.5q41 0 76 14.5t60 41t39 62t14 77.5q0 39 -14 74.5t-39 62.5t-60 43t-76 16q-44 0 -78.5 -16t-58.5 -43t-36.5 -62.5t-12.5 -74.5zM109 -114q35 -38 83.5 -59.5t102.5 -21.5q53 0 89.5 16.5t58.5 45t31.5 66
t9.5 78.5v91h-2q-28 -51 -78.5 -78.5t-107.5 -27.5q-53 0 -97 18t-75.5 50t-48.5 76t-17 95t17 95t48.5 77t75.5 52t97 19q56 0 106.5 -27t79.5 -80h2v95h55v-455q0 -44 -11 -89t-38.5 -81.5t-75.5 -60t-121 -23.5q-66 0 -122.5 24.5t-96.5 67.5zM449 705q-5 -63 -43 -96.5
t-98 -33.5q-58 0 -96.5 33.5t-43.5 96.5h37q8 -43 36.5 -64.5t66.5 -21.5q40 0 68.5 20.5t36.5 65.5h36z" />
    <glyph glyph-name="Gdotaccent" unicode="&#x120;" horiz-adv-x="784" 
d="M641 596q-38 38 -92.5 59t-118.5 21q-71 0 -128.5 -25.5t-97.5 -69.5t-61.5 -102.5t-21.5 -123.5t21.5 -124t61.5 -103t97.5 -70t130.5 -26q64 0 116 13.5t87 34.5v234h-170v50h227v-316q-54 -32 -120 -49.5t-141 -17.5q-81 0 -149 28t-117 78t-76.5 118.5t-27.5 149.5
q0 80 27.5 148.5t77 118t117 77.5t147.5 28q81 0 141.5 -23.5t105.5 -68.5zM469 851q0 -18 -13 -29.5t-28 -11.5t-28 11.5t-13 29.5t13 29.5t28 11.5t28 -11.5t13 -29.5z" />
    <glyph glyph-name="gdotaccent" unicode="&#x121;" horiz-adv-x="630" 
d="M115 237q0 -39 12.5 -74.5t36.5 -62.5t58.5 -42.5t78.5 -15.5q41 0 76 14.5t60 41t39 62t14 77.5q0 39 -14 74.5t-39 62.5t-60 43t-76 16q-44 0 -78.5 -16t-58.5 -43t-36.5 -62.5t-12.5 -74.5zM109 -114q35 -38 83.5 -59.5t102.5 -21.5q53 0 89.5 16.5t58.5 45t31.5 66
t9.5 78.5v91h-2q-28 -51 -78.5 -78.5t-107.5 -27.5q-53 0 -97 18t-75.5 50t-48.5 76t-17 95t17 95t48.5 77t75.5 52t97 19q56 0 106.5 -27t79.5 -80h2v95h55v-455q0 -44 -11 -89t-38.5 -81.5t-75.5 -60t-121 -23.5q-66 0 -122.5 24.5t-96.5 67.5zM348 651q0 -18 -13 -29.5
t-28 -11.5t-28 11.5t-13 29.5t13 29.5t28 11.5t28 -11.5t13 -29.5z" />
    <glyph glyph-name="Gcommaaccent" unicode="&#x122;" horiz-adv-x="787" 
d="M641 596q-38 38 -92.5 59t-118.5 21q-71 0 -128.5 -25.5t-97.5 -69.5t-61.5 -102.5t-21.5 -123.5t21.5 -124t61.5 -103t97.5 -70t130.5 -26q64 0 116 13.5t87 34.5v234h-170v50h227v-316q-54 -32 -120 -49.5t-141 -17.5q-81 0 -149 28t-117 78t-76.5 118.5t-27.5 149.5
q0 80 27.5 148.5t77 118t117 77.5t147.5 28q81 0 141.5 -23.5t105.5 -68.5zM401 -230h-45l59 185h57z" />
    <glyph glyph-name="gcommaaccent" unicode="&#x123;" horiz-adv-x="630" 
d="M115 237q0 -39 12.5 -74.5t36.5 -62.5t58.5 -42.5t78.5 -15.5q41 0 76 14.5t60 41t39 62t14 77.5q0 39 -14 74.5t-39 62.5t-60 43t-76 16q-44 0 -78.5 -16t-58.5 -43t-36.5 -62.5t-12.5 -74.5zM109 -114q35 -38 83.5 -59.5t102.5 -21.5q53 0 89.5 16.5t58.5 45t31.5 66
t9.5 78.5v91h-2q-28 -51 -78.5 -78.5t-107.5 -27.5q-53 0 -97 18t-75.5 50t-48.5 76t-17 95t17 95t48.5 77t75.5 52t97 19q56 0 106.5 -27t79.5 -80h2v95h55v-455q0 -44 -11 -89t-38.5 -81.5t-75.5 -60t-121 -23.5q-66 0 -122.5 24.5t-96.5 67.5zM351 749h45l-59 -185h-57z
" />
    <glyph glyph-name="Hcircumflex" unicode="&#x124;" horiz-adv-x="722" 
d="M98 708h57v-314h413v314h57v-708h-57v341h-413v-341h-57v708zM499 764h-53l-86 115l-86 -115h-53l107 144h64z" />
    <glyph glyph-name="hcircumflex" unicode="&#x125;" horiz-adv-x="579" 
d="M151 375q23 51 67.5 77t96.5 26q46 0 79 -15t54.5 -41t31.5 -61.5t10 -76.5v-284h-54v264q0 34 -6 65t-21.5 53.5t-41 36t-64.5 13.5q-30 0 -58 -12t-49 -36.5t-34 -61t-13 -85.5v-237h-54v756h54v-381h2zM425 796h-53l-86 115l-86 -115h-53l107 144h64z" />
    <glyph glyph-name="Hbar" unicode="&#x126;" horiz-adv-x="722" 
d="M568 394v106h-413v-106h413zM98 708h57v-168h413v168h57v-708h-57v341h-413v-341h-57v708z" />
    <glyph glyph-name="hbar" unicode="&#x127;" horiz-adv-x="579" 
d="M95 610v146h54v-146h174v-40h-174v-195h2q10 24 27 43t39 32.5t47 20.5t51 7q46 0 79 -15t54.5 -41t31.5 -61.5t10 -76.5v-284h-54v264q0 34 -6 65t-21.5 54t-41 36.5t-64.5 13.5q-30 0 -58 -12.5t-49 -37t-34 -61t-13 -85.5v-237h-54v570h-59v40h59z" />
    <glyph glyph-name="Itilde" unicode="&#x128;" horiz-adv-x="252" 
d="M155 0h-57v708h57v-708zM-21 781q6 38 25 66t57 28q16 0 34.5 -7.5t36.5 -16t35 -16t29 -7.5q21 0 31 14.5t15 34.5h35q-6 -38 -25 -65.5t-56 -27.5q-16 0 -34.5 7.5t-36.5 16t-34.5 16t-29.5 7.5q-21 0 -31.5 -15t-15.5 -35h-35z" />
    <glyph glyph-name="itilde" unicode="&#x129;" horiz-adv-x="243" 
d="M149 0h-55v466h55v-466zM-25 581q6 38 25 66t57 28q16 0 34.5 -7.5t36.5 -16t35 -16t29 -7.5q21 0 31 14.5t15 34.5h35q-6 -38 -25 -65.5t-56 -27.5q-16 0 -34.5 7.5t-36.5 16t-34.5 16t-29.5 7.5q-21 0 -31.5 -15t-15.5 -35h-35z" />
    <glyph glyph-name="Imacron" unicode="&#x12a;" horiz-adv-x="252" 
d="M155 0h-57v708h57v-708zM256 806h-258v44h258v-44z" />
    <glyph glyph-name="imacron" unicode="&#x12b;" horiz-adv-x="243" 
d="M149 0h-55v466h55v-466zM251 606h-258v44h258v-44z" />
    <glyph glyph-name="Ibreve" unicode="&#x12c;" horiz-adv-x="252" 
d="M155 0h-57v708h57v-708zM267 905q-5 -63 -43 -96.5t-98 -33.5q-58 0 -96.5 33.5t-43.5 96.5h37q8 -43 36.5 -64.5t66.5 -21.5q40 0 68.5 20.5t36.5 65.5h36z" />
    <glyph glyph-name="ibreve" unicode="&#x12d;" horiz-adv-x="243" 
d="M149 0h-55v466h55v-466zM262 705q-5 -63 -43 -96.5t-98 -33.5q-58 0 -96.5 33.5t-43.5 96.5h37q8 -43 36.5 -64.5t66.5 -21.5q40 0 68.5 20.5t36.5 65.5h36z" />
    <glyph glyph-name="Iogonek" unicode="&#x12e;" horiz-adv-x="252" 
d="M108 -223q-35 0 -61.5 23t-26.5 61q0 20 8 39t21 36.5t29 33.5t32 30h-12v708h57v-708q-42 -42 -64 -69t-22 -58q0 -24 15.5 -38.5t38.5 -14.5q33 0 57 24l16 -32q-17 -17 -40 -26t-48 -9z" />
    <glyph glyph-name="iogonek" unicode="&#x12f;" horiz-adv-x="243" 
d="M121 610q-15 0 -27.5 11.5t-12.5 29.5t12.5 29.5t27.5 11.5q16 0 28.5 -11.5t12.5 -29.5t-12.5 -29.5t-28.5 -11.5zM104 -223q-35 0 -61.5 23t-26.5 61q0 20 8 39t20.5 36.5t28.5 33t32 29.5h-2q-1 0 -2 0.5t-2 0.5h-5v466h55v-466h-3q-40 -40 -61 -68t-21 -59
q0 -24 16 -38.5t39 -14.5q32 0 56 24l16 -32q-17 -17 -40 -26t-47 -9z" />
    <glyph glyph-name="Idotaccent" unicode="&#x130;" horiz-adv-x="252" 
d="M155 0h-57v708h57v-708zM168 851q0 -18 -13 -29.5t-28 -11.5t-28 11.5t-13 29.5t13 29.5t28 11.5t28 -11.5t13 -29.5z" />
    <glyph glyph-name="dotlessi" unicode="&#x131;" horiz-adv-x="243" 
d="M149 0h-55v466h55v-466z" />
    <glyph glyph-name="IJ" unicode="&#x132;" horiz-adv-x="726" 
d="M155 0h-57v708h57v-708zM317 131q11 -42 44 -70.5t81 -28.5q39 0 64.5 14t41.5 37.5t22.5 55t6.5 66.5v503h57v-507q0 -39 -9 -78t-30 -70.5t-57 -51t-90 -19.5q-73 0 -121.5 38t-62.5 96z" />
    <glyph glyph-name="ij" unicode="&#x133;" horiz-adv-x="485" 
d="M364 610q-16 0 -28.5 11.5t-12.5 29.5t12.5 29.5t28.5 11.5q15 0 27.5 -11.5t12.5 -29.5t-12.5 -29.5t-27.5 -11.5zM121 610q-15 0 -27.5 11.5t-12.5 29.5t12.5 29.5t27.5 11.5q16 0 28.5 -11.5t12.5 -29.5t-12.5 -29.5t-28.5 -11.5zM94 466h55v-466h-55v466zM226 -189
q20 -5 37 -5q25 0 39.5 8.5t22 23t10 34t2.5 41.5v553h54v-560q0 -30 -5.5 -57t-20 -46.5t-39 -31t-62.5 -11.5q-9 0 -22 1t-24 5z" />
    <glyph glyph-name="Jcircumflex" unicode="&#x134;" horiz-adv-x="488" 
d="M79 131q11 -42 44 -70.5t81 -28.5q39 0 64.5 14t41.5 37.5t22.5 55t6.5 66.5v503h57v-507q0 -39 -9 -78t-30 -70.5t-57 -51t-90 -19.5q-73 0 -121.5 38t-62.5 96zM505 764h-53l-86 115l-86 -115h-53l107 144h64z" />
    <glyph glyph-name="jcircumflex" unicode="&#x135;" horiz-adv-x="244" 
d="M-16 -189q22 -5 38 -5q24 0 38.5 8.5t22 23t10 34t2.5 41.5v553h54v-560q0 -30 -5.5 -57t-19.5 -46.5t-38.5 -31t-62.5 -11.5q-10 0 -23 1t-24 5zM260 564h-53l-86 115l-86 -115h-53l107 144h64z" />
    <glyph glyph-name="Kcommaaccent" unicode="&#x136;" horiz-adv-x="609" 
d="M155 388l343 320h82l-358 -322l377 -386h-83l-361 378v-378h-57v708h57v-320zM298 -230h-45l59 185h57z" />
    <glyph glyph-name="kcommaaccent" unicode="&#x137;" horiz-adv-x="491" 
d="M149 254h3l222 212h78l-238 -214l263 -252h-80l-245 245h-3v-245h-54v756h54v-502zM239 -229h-45l59 185h57z" />
    <glyph glyph-name="kgreenlandic" unicode="&#x138;" horiz-adv-x="491" 
d="M149 254h3l222 212h78l-238 -214l263 -252h-80l-245 245h-3v-245h-54v466h54v-212z" />
    <glyph glyph-name="Lacute" unicode="&#x139;" horiz-adv-x="506" 
d="M155 51h336v-51h-393v708h57v-657zM149 764h-47l101 144h72z" />
    <glyph glyph-name="lacute" unicode="&#x13a;" horiz-adv-x="244" 
d="M149 0h-54v756h54v-756zM143 792h-47l101 144h72z" />
    <glyph glyph-name="Lcommaaccent" unicode="&#x13b;" horiz-adv-x="506" 
d="M155 51h336v-51h-393v708h57v-657zM265 -230h-45l59 185h57z" />
    <glyph glyph-name="lcommaaccent" unicode="&#x13c;" horiz-adv-x="244" 
d="M149 0h-54v756h54v-756zM96 -229h-45l59 185h57z" />
    <glyph glyph-name="Lcaron" unicode="&#x13d;" horiz-adv-x="506" 
d="M155 51h336v-51h-393v708h57v-657zM278 523h-45l59 185h57z" />
    <glyph glyph-name="lcaron" unicode="&#x13e;" horiz-adv-x="278" 
d="M149 0h-54v756h54v-756zM251 523h-45l58 185h57z" />
    <glyph glyph-name="Ldot" unicode="&#x13f;" horiz-adv-x="506" 
d="M155 51h336v-51h-393v708h57v-657zM356 431q0 -18 -13 -29.5t-28 -11.5t-28 11.5t-13 29.5t13 29.5t28 11.5t28 -11.5t13 -29.5z" />
    <glyph glyph-name="ldot" unicode="&#x140;" horiz-adv-x="291" 
d="M149 0h-54v756h54v-756zM289 461q0 -18 -13 -29.5t-28 -11.5t-28 11.5t-13 29.5t13 29.5t28 11.5t28 -11.5t13 -29.5z" />
    <glyph glyph-name="Lslash" unicode="&#x141;" horiz-adv-x="506" 
d="M155 344l213 186v-56l-213 -187v-236h336v-51h-393v247l-77 -67v57l77 67v404h57v-364z" />
    <glyph glyph-name="lslash" unicode="&#x142;" horiz-adv-x="244" 
d="M149 442l79 78v-58l-79 -78v-384h-53v340l-76 -76v59l76 76v357h53v-314z" />
    <glyph glyph-name="Nacute" unicode="&#x143;" horiz-adv-x="768" 
d="M611 82h2v626h57v-708h-72l-441 630h-2v-630h-57v708h72zM398 764h-47l101 144h72z" />
    <glyph glyph-name="nacute" unicode="&#x144;" horiz-adv-x="578" 
d="M142 466q2 -20 3 -47t1 -46h2q10 24 27.5 43.5t40 33t48 21t51.5 7.5q46 0 79 -15t54 -41t31 -61.5t10 -76.5v-284h-54v264q0 34 -6 65t-21 53.5t-40.5 36t-64.5 13.5q-30 0 -58 -12t-49.5 -36.5t-34 -61t-12.5 -85.5v-237h-55v359q0 20 -1 51.5t-3 55.5h52zM300 564h-47
l101 144h72z" />
    <glyph glyph-name="Ncommaaccent" unicode="&#x145;" horiz-adv-x="768" 
d="M611 82h2v626h57v-708h-72l-441 630h-2v-630h-57v708h72zM347 -230h-45l59 185h57z" />
    <glyph glyph-name="ncommaaccent" unicode="&#x146;" horiz-adv-x="578" 
d="M142 466q2 -20 3 -47t1 -46h2q10 24 27.5 43.5t40 33t48 21t51.5 7.5q46 0 79 -15t54 -41t31 -61.5t10 -76.5v-284h-54v264q0 34 -6 65t-21 53.5t-40.5 36t-64.5 13.5q-30 0 -58 -12t-49.5 -36.5t-34 -61t-12.5 -85.5v-237h-55v359q0 20 -1 51.5t-3 55.5h52zM263 -230
h-45l59 185h57z" />
    <glyph glyph-name="Ncaron" unicode="&#x147;" horiz-adv-x="768" 
d="M611 82h2v626h57v-708h-72l-441 630h-2v-630h-57v708h72zM416 764h-64l-107 144h53l86 -115l86 115h53z" />
    <glyph glyph-name="ncaron" unicode="&#x148;" horiz-adv-x="578" 
d="M142 466q2 -20 3 -47t1 -46h2q10 24 27.5 43.5t40 33t48 21t51.5 7.5q46 0 79 -15t54 -41t31 -61.5t10 -76.5v-284h-54v264q0 34 -6 65t-21 53.5t-40.5 36t-64.5 13.5q-30 0 -58 -12t-49.5 -36.5t-34 -61t-12.5 -85.5v-237h-55v359q0 20 -1 51.5t-3 55.5h52zM325 564h-64
l-107 144h53l86 -115l86 115h53z" />
    <glyph glyph-name="napostrophe" unicode="&#x149;" horiz-adv-x="578" 
d="M142 466q2 -20 3 -47t1 -46h2q10 24 27.5 43.5t40 33t48 21t51.5 7.5q46 0 79 -15t54 -41t31 -61.5t10 -76.5v-284h-54v264q0 34 -6 65t-21 53.5t-40.5 36t-64.5 13.5q-30 0 -58 -12t-49.5 -36.5t-34 -61t-12.5 -85.5v-237h-55v359q0 20 -1 51.5t-3 55.5h52zM43 557h-45
l58 185h57z" />
    <glyph glyph-name="Eng" unicode="&#x14a;" horiz-adv-x="768" 
d="M98 708h72l441 -612h2v612h57v-802q0 -30 -5.5 -57t-19.5 -46.5t-38.5 -31t-62.5 -11.5q-10 0 -23 1t-24 5l8 45q22 -5 38 -5q24 0 38.5 8.5t22 23t10 34t2.5 41.5v77l-459 640h-2v-630h-57v708z" />
    <glyph glyph-name="eng" unicode="&#x14b;" horiz-adv-x="578" 
d="M324 -189q22 -5 38 -5q24 0 38.5 8.5t22 23t10 34t2.5 41.5v351q0 34 -6 65t-21 54t-40.5 36.5t-64.5 13.5q-30 0 -58 -12.5t-49.5 -37t-34 -61t-12.5 -85.5v-237h-55v359q0 20 -1 51.5t-3 55.5h52q2 -20 3 -47t1 -46h2q10 24 27.5 43.5t40 33t48 21t51.5 7.5
q46 0 79 -15t54 -41t31 -61.5t10 -76.5v-378q0 -30 -5.5 -57t-19.5 -46.5t-38.5 -31t-62.5 -11.5q-10 0 -23 1t-24 5z" />
    <glyph glyph-name="Omacron" unicode="&#x14c;" horiz-adv-x="857" 
d="M736 354q0 66 -21.5 124.5t-62 102.5t-97.5 69.5t-127 25.5q-71 0 -127.5 -25.5t-96.5 -69.5t-61.5 -102.5t-21.5 -124.5q0 -65 21.5 -123.5t61.5 -102.5t96.5 -70t127.5 -26t128 26t97 70t61.5 102.5t21.5 123.5zM796 354q0 -81 -28 -149.5t-77 -118t-116.5 -77.5
t-146.5 -28t-146 28t-116 77.5t-77 118t-28 149.5t28 149.5t77 118t116 77.5t146 28t146.5 -28t116.5 -77.5t77 -118t28 -149.5zM560 806h-258v44h258v-44z" />
    <glyph glyph-name="omacron" unicode="&#x14d;" horiz-adv-x="609" 
d="M494 233q0 42 -13 78t-38 62.5t-60 42t-79 15.5t-78.5 -15.5t-59.5 -42t-38 -62.5t-13 -78t13 -78t38 -62.5t59.5 -41.5t78.5 -15t79 15t60 41.5t38 62.5t13 78zM550 233q0 -53 -18 -98t-50.5 -78t-78 -51.5t-99.5 -18.5t-99 18.5t-77.5 51.5t-50.5 78t-18 98t18 98
t50.5 77.5t77.5 51t99 18.5t99.5 -18.5t78 -51t50.5 -77.5t18 -98zM434 606h-258v44h258v-44z" />
    <glyph glyph-name="Obreve" unicode="&#x14e;" horiz-adv-x="857" 
d="M736 354q0 66 -21.5 124.5t-62 102.5t-97.5 69.5t-127 25.5q-71 0 -127.5 -25.5t-96.5 -69.5t-61.5 -102.5t-21.5 -124.5q0 -65 21.5 -123.5t61.5 -102.5t96.5 -70t127.5 -26t128 26t97 70t61.5 102.5t21.5 123.5zM796 354q0 -81 -28 -149.5t-77 -118t-116.5 -77.5
t-146.5 -28t-146 28t-116 77.5t-77 118t-28 149.5t28 149.5t77 118t116 77.5t146 28t146.5 -28t116.5 -77.5t77 -118t28 -149.5zM571 905q-5 -63 -43 -96.5t-98 -33.5q-58 0 -96.5 33.5t-43.5 96.5h37q8 -43 36.5 -64.5t66.5 -21.5q40 0 68.5 20.5t36.5 65.5h36z" />
    <glyph glyph-name="obreve" unicode="&#x14f;" horiz-adv-x="609" 
d="M494 233q0 42 -13 78t-38 62.5t-60 42t-79 15.5t-78.5 -15.5t-59.5 -42t-38 -62.5t-13 -78t13 -78t38 -62.5t59.5 -41.5t78.5 -15t79 15t60 41.5t38 62.5t13 78zM550 233q0 -53 -18 -98t-50.5 -78t-78 -51.5t-99.5 -18.5t-99 18.5t-77.5 51.5t-50.5 78t-18 98t18 98
t50.5 77.5t77.5 51t99 18.5t99.5 -18.5t78 -51t50.5 -77.5t18 -98zM446 705q-5 -63 -43 -96.5t-98 -33.5q-58 0 -96.5 33.5t-43.5 96.5h37q8 -43 36.5 -64.5t66.5 -21.5q40 0 68.5 20.5t36.5 65.5h36z" />
    <glyph glyph-name="Ohungarumlaut" unicode="&#x150;" horiz-adv-x="857" 
d="M736 354q0 66 -21.5 124.5t-62 102.5t-97.5 69.5t-127 25.5q-71 0 -127.5 -25.5t-96.5 -69.5t-61.5 -102.5t-21.5 -124.5q0 -65 21.5 -123.5t61.5 -102.5t96.5 -70t127.5 -26t128 26t97 70t61.5 102.5t21.5 123.5zM796 354q0 -81 -28 -149.5t-77 -118t-116.5 -77.5
t-146.5 -28t-146 28t-116 77.5t-77 118t-28 149.5t28 149.5t77 118t116 77.5t146 28t146.5 -28t116.5 -77.5t77 -118t28 -149.5zM581 908h72l-126 -144h-47zM427 908h72l-126 -144h-47z" />
    <glyph glyph-name="ohungarumlaut" unicode="&#x151;" horiz-adv-x="609" 
d="M494 233q0 42 -13 78t-38 62.5t-60 42t-79 15.5t-78.5 -15.5t-59.5 -42t-38 -62.5t-13 -78t13 -78t38 -62.5t59.5 -41.5t78.5 -15t79 15t60 41.5t38 62.5t13 78zM550 233q0 -53 -18 -98t-50.5 -78t-78 -51.5t-99.5 -18.5t-99 18.5t-77.5 51.5t-50.5 78t-18 98t18 98
t50.5 77.5t77.5 51t99 18.5t99.5 -18.5t78 -51t50.5 -77.5t18 -98zM461 708h72l-126 -144h-47zM307 708h72l-126 -144h-47z" />
    <glyph glyph-name="OE" unicode="&#x152;" horiz-adv-x="988" 
d="M464 657q-79 0 -141 -23t-104.5 -64t-65 -96.5t-22.5 -119.5q0 -65 22.5 -120.5t65 -96t104.5 -63.5t141 -23h65v606h-65zM925 708v-51h-339v-264h316v-50h-316v-292h352v-51h-489q-71 0 -139 21.5t-121 65.5t-85.5 110.5t-32.5 156.5t32.5 156.5t85.5 110.5t121 65.5
t139 21.5h476z" />
    <glyph glyph-name="oe" unicode="&#x153;" horiz-adv-x="999" 
d="M887 265q-2 37 -13.5 67.5t-32.5 53t-51 35t-69 12.5q-40 0 -71.5 -15.5t-53.5 -39.5t-34.5 -54t-13.5 -59h339zM494 233q0 42 -13.5 78.5t-38 63.5t-60 42.5t-79.5 15.5t-79 -15.5t-59.5 -42.5t-38 -63.5t-13.5 -78.5t13.5 -78t38 -63t59.5 -42.5t79 -15.5t79.5 15.5
t60 42.5t38 63t13.5 78zM303 -13q-54 0 -99 18.5t-77.5 51.5t-50.5 78t-18 98t18 98t50.5 77.5t77.5 51t99 18.5q75 0 131 -33.5t85 -93.5q28 60 80 93.5t121 33.5q55 0 96.5 -18.5t69.5 -50t42 -72.5t14 -87v-13.5t-1 -14.5h-396q1 -37 14.5 -71t37 -60t57 -41.5
t74.5 -15.5q54 0 93.5 23.5t62.5 58.5l40 -32q-39 -51 -88 -74t-109 -23q-72 0 -125.5 34.5t-81.5 94.5q-29 -60 -85 -94.5t-132 -34.5z" />
    <glyph glyph-name="Racute" unicode="&#x154;" horiz-adv-x="598" 
d="M155 388h139q91 0 139 34t48 101q0 38 -14.5 64t-39.5 42t-59.5 23t-74.5 7h-138v-271zM155 0h-57v708h204q49 0 92 -9t75 -31t50.5 -57.5t18.5 -87.5q0 -42 -15.5 -74.5t-41 -55t-60 -35t-71.5 -15.5l209 -343h-69l-202 339h-133v-339zM280 764h-47l101 144h72z" />
    <glyph glyph-name="racute" unicode="&#x155;" horiz-adv-x="347" 
d="M94 359q0 20 -1 51.5t-3 55.5h52q2 -20 3 -47t1 -46h2q20 51 61 78t92 27q11 0 19.5 -0.5t17.5 -3.5l-6 -50q-5 2 -16 3t-22 1q-64 0 -104.5 -49.5t-40.5 -139.5v-239h-55v359zM166 564h-47l101 144h72z" />
    <glyph glyph-name="Rcommaaccent" unicode="&#x156;" horiz-adv-x="598" 
d="M155 388h139q91 0 139 34t48 101q0 38 -14.5 64t-39.5 42t-59.5 23t-74.5 7h-138v-271zM155 0h-57v708h204q49 0 92 -9t75 -31t50.5 -57.5t18.5 -87.5q0 -42 -15.5 -74.5t-41 -55t-60 -35t-71.5 -15.5l209 -343h-69l-202 339h-133v-339zM282 -230h-45l59 185h57z" />
    <glyph glyph-name="rcommaaccent" unicode="&#x157;" horiz-adv-x="347" 
d="M94 359q0 20 -1 51.5t-3 55.5h52q2 -20 3 -47t1 -46h2q20 51 61 78t92 27q11 0 19.5 -0.5t17.5 -3.5l-6 -50q-5 2 -16 3t-22 1q-64 0 -104.5 -49.5t-40.5 -139.5v-239h-55v359zM95 -230h-45l59 185h57z" />
    <glyph glyph-name="Rcaron" unicode="&#x158;" horiz-adv-x="598" 
d="M155 388h139q91 0 139 34t48 101q0 38 -14.5 64t-39.5 42t-59.5 23t-74.5 7h-138v-271zM155 0h-57v708h204q49 0 92 -9t75 -31t50.5 -57.5t18.5 -87.5q0 -42 -15.5 -74.5t-41 -55t-60 -35t-71.5 -15.5l209 -343h-69l-202 339h-133v-339zM314 764h-64l-107 144h53l86 -115
l86 115h53z" />
    <glyph glyph-name="rcaron" unicode="&#x159;" horiz-adv-x="347" 
d="M94 359q0 20 -1 51.5t-3 55.5h52q2 -20 3 -47t1 -46h2q20 51 61 78t92 27q11 0 19.5 -0.5t17.5 -3.5l-6 -50q-5 2 -16 3t-22 1q-64 0 -104.5 -49.5t-40.5 -139.5v-239h-55v359zM240 564h-64l-107 144h53l86 -115l86 115h53z" />
    <glyph glyph-name="Sacute" unicode="&#x15a;" horiz-adv-x="566" 
d="M450 606q-29 35 -67 53.5t-89 18.5q-29 0 -58 -8.5t-52.5 -26.5t-38.5 -45t-15 -63q0 -39 16 -64t42 -42.5t59.5 -29t68.5 -23.5t68.5 -26t59.5 -35.5t42 -53.5t16 -80q0 -51 -19.5 -88.5t-51 -62.5t-72.5 -37t-83 -12q-69 0 -122.5 26.5t-91.5 75.5l40 35q38 -45 80 -66
t94 -21q31 0 61 9.5t54 28t38.5 46t14.5 63.5q0 39 -16 64.5t-42 43.5t-59.5 30t-68 24t-68 26t-59.5 36t-42 54t-16 79q0 49 20 85t51.5 60t71.5 35.5t81 11.5q70 0 118.5 -24.5t75.5 -59.5zM296 764h-47l101 144h72z" />
    <glyph glyph-name="sacute" unicode="&#x15b;" horiz-adv-x="435" 
d="M337 369q-17 29 -47.5 46.5t-69.5 17.5q-18 0 -37 -4.5t-34 -14.5t-24.5 -25t-9.5 -37q0 -39 29.5 -58t87.5 -31q75 -17 115.5 -47t40.5 -87q0 -37 -14.5 -63.5t-38 -44t-54 -25.5t-62.5 -8q-54 0 -100.5 21t-76.5 66l43 31q20 -32 55.5 -52t78.5 -20q22 0 42.5 5
t36.5 16t26 28.5t10 41.5q0 31 -20 48t-50 27.5t-65.5 18.5t-65.5 22.5t-50 39t-20 67.5q0 34 13.5 58.5t35.5 40.5t51 23.5t59 7.5q51 0 92.5 -20.5t64.5 -58.5zM233 564h-47l101 144h72z" />
    <glyph glyph-name="Scircumflex" unicode="&#x15c;" horiz-adv-x="566" 
d="M450 606q-29 35 -67 53.5t-89 18.5q-29 0 -58 -8.5t-52.5 -26.5t-38.5 -45t-15 -63q0 -39 16 -64t42 -42.5t59.5 -29t68.5 -23.5t68.5 -26t59.5 -35.5t42 -53.5t16 -80q0 -51 -19.5 -88.5t-51 -62.5t-72.5 -37t-83 -12q-69 0 -122.5 26.5t-91.5 75.5l40 35q38 -45 80 -66
t94 -21q31 0 61 9.5t54 28t38.5 46t14.5 63.5q0 39 -16 64.5t-42 43.5t-59.5 30t-68 24t-68 26t-59.5 36t-42 54t-16 79q0 49 20 85t51.5 60t71.5 35.5t81 11.5q70 0 118.5 -24.5t75.5 -59.5zM434 764h-53l-86 115l-86 -115h-53l107 144h64z" />
    <glyph glyph-name="scircumflex" unicode="&#x15d;" horiz-adv-x="435" 
d="M337 369q-17 29 -47.5 46.5t-69.5 17.5q-18 0 -37 -4.5t-34 -14.5t-24.5 -25t-9.5 -37q0 -39 29.5 -58t87.5 -31q75 -17 115.5 -47t40.5 -87q0 -37 -14.5 -63.5t-38 -44t-54 -25.5t-62.5 -8q-54 0 -100.5 21t-76.5 66l43 31q20 -32 55.5 -52t78.5 -20q22 0 42.5 5
t36.5 16t26 28.5t10 41.5q0 31 -20 48t-50 27.5t-65.5 18.5t-65.5 22.5t-50 39t-20 67.5q0 34 13.5 58.5t35.5 40.5t51 23.5t59 7.5q51 0 92.5 -20.5t64.5 -58.5zM364 564h-53l-86 115l-86 -115h-53l107 144h64z" />
    <glyph glyph-name="Scedilla" unicode="&#x15e;" horiz-adv-x="566" 
d="M450 606q-29 35 -67 53.5t-89 18.5q-29 0 -58 -8.5t-52.5 -26.5t-38.5 -45t-15 -63q0 -39 16 -64t42 -42.5t59.5 -29t68.5 -23.5t68.5 -26t59.5 -35.5t42 -53.5t16 -80q0 -49 -17.5 -85t-46.5 -60.5t-66 -37.5t-77 -16l-38 -60q9 3 18.5 4t21.5 1q15 0 30 -4t27 -13
t19.5 -22.5t7.5 -31.5q0 -25 -11 -41.5t-28 -26t-37.5 -13.5t-39.5 -4q-20 0 -46 5t-47 15l13 31q17 -8 37 -12t39 -4q10 0 22.5 2.5t23.5 8t18.5 15t7.5 23.5q0 23 -17.5 33t-42.5 10q-11 0 -25.5 -2.5t-25.5 -7.5l-15 13l52 81q-63 3 -112.5 29t-84.5 72l40 35
q38 -45 80 -66t94 -21q31 0 61 9.5t54 28t38.5 46t14.5 63.5q0 39 -16 64.5t-42 43.5t-59.5 30t-68 24t-68 26t-59.5 36t-42 54t-16 79q0 49 20 85t51.5 60t71.5 35.5t81 11.5q70 0 118.5 -24.5t75.5 -59.5z" />
    <glyph glyph-name="scedilla" unicode="&#x15f;" horiz-adv-x="435" 
d="M337 369q-17 29 -47.5 46.5t-69.5 17.5q-18 0 -37 -4.5t-34 -14.5t-24.5 -25t-9.5 -37q0 -39 29.5 -58t87.5 -31q75 -17 115.5 -47t40.5 -87q0 -34 -12 -59t-32.5 -42t-47 -26.5t-55.5 -12.5l-43 -67q9 3 18.5 4t21.5 1q15 0 30 -4t27 -13t19.5 -22.5t7.5 -31.5
q0 -25 -11 -41.5t-28 -26t-37.5 -13.5t-39.5 -4q-20 0 -46 5t-47 15l13 31q17 -8 37 -12t39 -4q10 0 22.5 2.5t23.5 8t18.5 15t7.5 23.5q0 23 -17.5 33t-42.5 10q-11 0 -25.5 -2.5t-25.5 -7.5l-15 13l56 88q-48 2 -91 23t-71 63l43 31q20 -32 55.5 -52t78.5 -20q22 0 42.5 5
t36.5 16t26 28.5t10 41.5q0 31 -20 48t-50 27.5t-65.5 18.5t-65.5 22.5t-50 39t-20 67.5q0 34 13.5 58.5t35.5 40.5t51 23.5t59 7.5q51 0 92.5 -20.5t64.5 -58.5z" />
    <glyph glyph-name="Scaron" unicode="&#x160;" horiz-adv-x="566" 
d="M450 606q-29 35 -67 53.5t-89 18.5q-29 0 -58 -8.5t-52.5 -26.5t-38.5 -45t-15 -63q0 -39 16 -64t42 -42.5t59.5 -29t68.5 -23.5t68.5 -26t59.5 -35.5t42 -53.5t16 -80q0 -51 -19.5 -88.5t-51 -62.5t-72.5 -37t-83 -12q-69 0 -122.5 26.5t-91.5 75.5l40 35q38 -45 80 -66
t94 -21q31 0 61 9.5t54 28t38.5 46t14.5 63.5q0 39 -16 64.5t-42 43.5t-59.5 30t-68 24t-68 26t-59.5 36t-42 54t-16 79q0 49 20 85t51.5 60t71.5 35.5t81 11.5q70 0 118.5 -24.5t75.5 -59.5zM321 764h-64l-107 144h53l86 -115l86 115h53z" />
    <glyph glyph-name="scaron" unicode="&#x161;" horiz-adv-x="435" 
d="M337 369q-17 29 -47.5 46.5t-69.5 17.5q-18 0 -37 -4.5t-34 -14.5t-24.5 -25t-9.5 -37q0 -39 29.5 -58t87.5 -31q75 -17 115.5 -47t40.5 -87q0 -37 -14.5 -63.5t-38 -44t-54 -25.5t-62.5 -8q-54 0 -100.5 21t-76.5 66l43 31q20 -32 55.5 -52t78.5 -20q22 0 42.5 5
t36.5 16t26 28.5t10 41.5q0 31 -20 48t-50 27.5t-65.5 18.5t-65.5 22.5t-50 39t-20 67.5q0 34 13.5 58.5t35.5 40.5t51 23.5t59 7.5q51 0 92.5 -20.5t64.5 -58.5zM257 564h-64l-107 144h53l86 -115l86 115h53z" />
    <glyph glyph-name="Tcommaaccent" unicode="&#x162;" horiz-adv-x="561" 
d="M309 0h-57v657h-238v51h533v-51h-238v-657zM255 -230h-45l59 185h57z" />
    <glyph glyph-name="tcommaaccent" unicode="&#x163;" horiz-adv-x="313" 
d="M294 420h-133v-295q0 -50 20.5 -68t53.5 -18q30 0 57 13l3 -47q-17 -6 -35 -9.5t-39 -3.5t-41.5 6t-36.5 20t-26 37t-10 57v308h-98v46h97v133h55v-133h133v-46zM169 -230h-45l59 185h57z" />
    <glyph glyph-name="Tcaron" unicode="&#x164;" horiz-adv-x="561" 
d="M309 0h-57v657h-238v51h533v-51h-238v-657zM312 764h-64l-107 144h53l86 -115l86 115h53z" />
    <glyph glyph-name="tcaron" unicode="&#x165;" horiz-adv-x="323" 
d="M294 420h-133v-295q0 -50 20.5 -68t53.5 -18q30 0 57 13l3 -47q-17 -6 -35 -9.5t-39 -3.5t-41.5 6t-36.5 20t-26 37t-10 57v308h-98v46h97v133h55v-133h133v-46zM271 546h-45l59 185h57z" />
    <glyph glyph-name="Tbar" unicode="&#x166;" horiz-adv-x="561" 
d="M252 544v113h-238v51h533v-51h-238v-113h176v-41h-176v-503h-57v503h-183v41h183z" />
    <glyph glyph-name="tbar" unicode="&#x167;" horiz-adv-x="313" 
d="M107 303v117h-98v46h97v133h55v-133h133v-46h-133v-117h122v-40h-122v-138q0 -50 20.5 -68t53.5 -18q30 0 57 13l3 -47q-17 -6 -35 -9.5t-39 -3.5t-41.5 6t-36.5 20t-26 37t-10 57v151h-90v40h90z" />
    <glyph glyph-name="Utilde" unicode="&#x168;" horiz-adv-x="717" 
d="M358 -19q-78 0 -129.5 26t-81.5 67t-42.5 91.5t-12.5 99.5v443h57v-436q0 -42 9.5 -85t33 -77.5t64 -56t102.5 -21.5q61 0 101.5 21.5t64.5 55.5t34 77t10 86v436h57v-443q0 -49 -12.5 -99.5t-43 -91.5t-82 -67t-129.5 -26zM210 781q6 38 25 66t57 28q16 0 34.5 -7.5
t36.5 -16t35 -16t29 -7.5q21 0 31 14.5t15 34.5h35q-6 -38 -25 -65.5t-56 -27.5q-16 0 -34.5 7.5t-36.5 16t-34.5 16t-29.5 7.5q-21 0 -31.5 -15t-15.5 -35h-35z" />
    <glyph glyph-name="utilde" unicode="&#x169;" horiz-adv-x="578" 
d="M435 0q-2 19 -3 46.5t-1 45.5h-2q-10 -24 -27.5 -43.5t-39 -33t-47 -21t-52.5 -7.5q-46 0 -79 15t-54.5 41t-31.5 61.5t-10 76.5v285h55v-264q0 -35 6 -65.5t21 -53.5t40.5 -36.5t64.5 -13.5q30 0 58 12.5t49 37t34 61t13 85.5v237h54v-359q0 -20 1.5 -52t3.5 -55h-53z
M140 581q6 38 25 66t57 28q16 0 34.5 -7.5t36.5 -16t35 -16t29 -7.5q21 0 31 14.5t15 34.5h35q-6 -38 -25 -65.5t-56 -27.5q-16 0 -34.5 7.5t-36.5 16t-34.5 16t-29.5 7.5q-21 0 -31.5 -15t-15.5 -35h-35z" />
    <glyph glyph-name="Umacron" unicode="&#x16a;" horiz-adv-x="717" 
d="M358 -19q-78 0 -129.5 26t-81.5 67t-42.5 91.5t-12.5 99.5v443h57v-436q0 -42 9.5 -85t33 -77.5t64 -56t102.5 -21.5q61 0 101.5 21.5t64.5 55.5t34 77t10 86v436h57v-443q0 -49 -12.5 -99.5t-43 -91.5t-82 -67t-129.5 -26zM488 806h-258v44h258v-44z" />
    <glyph glyph-name="umacron" unicode="&#x16b;" horiz-adv-x="578" 
d="M435 0q-2 19 -3 46.5t-1 45.5h-2q-10 -24 -27.5 -43.5t-39 -33t-47 -21t-52.5 -7.5q-46 0 -79 15t-54.5 41t-31.5 61.5t-10 76.5v285h55v-264q0 -35 6 -65.5t21 -53.5t40.5 -36.5t64.5 -13.5q30 0 58 12.5t49 37t34 61t13 85.5v237h54v-359q0 -20 1.5 -52t3.5 -55h-53z
M416 606h-258v44h258v-44z" />
    <glyph glyph-name="Ubreve" unicode="&#x16c;" horiz-adv-x="717" 
d="M358 -19q-78 0 -129.5 26t-81.5 67t-42.5 91.5t-12.5 99.5v443h57v-436q0 -42 9.5 -85t33 -77.5t64 -56t102.5 -21.5q61 0 101.5 21.5t64.5 55.5t34 77t10 86v436h57v-443q0 -49 -12.5 -99.5t-43 -91.5t-82 -67t-129.5 -26zM499 905q-5 -63 -43 -96.5t-98 -33.5
q-58 0 -96.5 33.5t-43.5 96.5h37q8 -43 36.5 -64.5t66.5 -21.5q40 0 68.5 20.5t36.5 65.5h36z" />
    <glyph glyph-name="ubreve" unicode="&#x16d;" horiz-adv-x="578" 
d="M435 0q-2 19 -3 46.5t-1 45.5h-2q-10 -24 -27.5 -43.5t-39 -33t-47 -21t-52.5 -7.5q-46 0 -79 15t-54.5 41t-31.5 61.5t-10 76.5v285h55v-264q0 -35 6 -65.5t21 -53.5t40.5 -36.5t64.5 -13.5q30 0 58 12.5t49 37t34 61t13 85.5v237h54v-359q0 -20 1.5 -52t3.5 -55h-53z
M429 705q-5 -63 -43 -96.5t-98 -33.5q-58 0 -96.5 33.5t-43.5 96.5h37q8 -43 36.5 -64.5t66.5 -21.5q40 0 68.5 20.5t36.5 65.5h36z" />
    <glyph glyph-name="Uring" unicode="&#x16e;" horiz-adv-x="717" 
d="M358 -19q-78 0 -129.5 26t-81.5 67t-42.5 91.5t-12.5 99.5v443h57v-436q0 -42 9.5 -85t33 -77.5t64 -56t102.5 -21.5q61 0 101.5 21.5t64.5 55.5t34 77t10 86v436h57v-443q0 -49 -12.5 -99.5t-43 -91.5t-82 -67t-129.5 -26zM425 850q0 27 -19 46t-46 19t-46 -19t-19 -46
t19 -46t46 -19t46 19t19 46zM456 850q0 -20 -7.5 -37.5t-21 -30.5t-31 -20t-36.5 -7q-20 0 -37 7t-30.5 20t-21 30.5t-7.5 37.5t7.5 37.5t21 30t30.5 20t37 7.5q19 0 36.5 -7.5t31 -20t21 -30t7.5 -37.5z" />
    <glyph glyph-name="uring" unicode="&#x16f;" horiz-adv-x="578" 
d="M435 0q-2 19 -3 46.5t-1 45.5h-2q-10 -24 -27.5 -43.5t-39 -33t-47 -21t-52.5 -7.5q-46 0 -79 15t-54.5 41t-31.5 61.5t-10 76.5v285h55v-264q0 -35 6 -65.5t21 -53.5t40.5 -36.5t64.5 -13.5q30 0 58 12.5t49 37t34 61t13 85.5v237h54v-359q0 -20 1.5 -52t3.5 -55h-53z
M352 650q0 27 -19 46t-46 19t-46 -19t-19 -46t19 -46t46 -19t46 19t19 46zM383 650q0 -20 -7.5 -37.5t-21 -30.5t-31 -20t-36.5 -7q-20 0 -37 7t-30.5 20t-21 30.5t-7.5 37.5t7.5 37.5t21 30t30.5 20t37 7.5q19 0 36.5 -7.5t31 -20t21 -30t7.5 -37.5z" />
    <glyph glyph-name="Uhungarumlaut" unicode="&#x170;" horiz-adv-x="717" 
d="M358 -19q-78 0 -129.5 26t-81.5 67t-42.5 91.5t-12.5 99.5v443h57v-436q0 -42 9.5 -85t33 -77.5t64 -56t102.5 -21.5q61 0 101.5 21.5t64.5 55.5t34 77t10 86v436h57v-443q0 -49 -12.5 -99.5t-43 -91.5t-82 -67t-129.5 -26zM506 908h72l-126 -144h-47zM352 908h72
l-126 -144h-47z" />
    <glyph glyph-name="uhungarumlaut" unicode="&#x171;" horiz-adv-x="578" 
d="M435 0q-2 19 -3 46.5t-1 45.5h-2q-10 -24 -27.5 -43.5t-39 -33t-47 -21t-52.5 -7.5q-46 0 -79 15t-54.5 41t-31.5 61.5t-10 76.5v285h55v-264q0 -35 6 -65.5t21 -53.5t40.5 -36.5t64.5 -13.5q30 0 58 12.5t49 37t34 61t13 85.5v237h54v-359q0 -20 1.5 -52t3.5 -55h-53z
M436 708h72l-126 -144h-47zM282 708h72l-126 -144h-47z" />
    <glyph glyph-name="Uogonek" unicode="&#x172;" horiz-adv-x="717" 
d="M355 -18q-78 0 -128.5 26t-80.5 67.5t-42 91.5t-12 98v443h57v-436q0 -42 9.5 -85t33 -77.5t64 -56t102.5 -21.5q61 0 101.5 21.5t64.5 55.5t34 77t10 86v436h57v-443q0 -44 -10 -89.5t-34 -84.5t-64.5 -67.5t-101.5 -37.5q-33 -34 -50.5 -59t-17.5 -54q0 -24 15.5 -38.5
t38.5 -14.5q33 0 57 24l16 -32q-17 -17 -40 -26t-48 -9q-35 0 -61.5 23t-26.5 61q0 35 21 65t48 56h-12z" />
    <glyph glyph-name="uogonek" unicode="&#x173;" horiz-adv-x="578" 
d="M434 -223q-35 0 -61.5 23t-26.5 61q0 20 8 39t21 36.5t29 33.5t32 30h-1q-2 19 -3 46.5t-1 45.5h-2q-10 -24 -27.5 -43.5t-39 -33t-47 -21t-52.5 -7.5q-46 0 -79 15t-54.5 41t-31.5 61.5t-10 76.5v285h55v-264q0 -35 6 -65.5t21 -53.5t40.5 -36.5t64.5 -13.5
q30 0 58 12.5t49 37t34 61t13 85.5v237h54v-359q0 -20 1.5 -52t3.5 -55q-1 0 -6.5 -0.5t-6.5 -0.5q-39 -39 -59.5 -67t-20.5 -59q0 -24 15.5 -38.5t38.5 -14.5q33 0 56 24l17 -32q-17 -17 -40.5 -26t-47.5 -9z" />
    <glyph glyph-name="Wcircumflex" unicode="&#x174;" horiz-adv-x="967" 
d="M262 75h2l184 633h71l185 -633h3l182 633h60l-210 -708h-69l-186 632h-2l-185 -632h-69l-210 708h60zM622 764h-53l-86 115l-86 -115h-53l107 144h64z" />
    <glyph glyph-name="wcircumflex" unicode="&#x175;" horiz-adv-x="732" 
d="M86 466l117 -398h2l133 398h55l135 -398h2l116 398h57l-144 -466h-61l-132 396h-2l-131 -396h-61l-144 466h58zM503 564h-53l-86 115l-86 -115h-53l107 144h64z" />
    <glyph glyph-name="Ycircumflex" unicode="&#x176;" horiz-adv-x="583" 
d="M320 0h-57v306l-259 402h71l218 -353l219 353h66l-258 -402v-306zM432 764h-53l-86 115l-86 -115h-53l107 144h64z" />
    <glyph glyph-name="ycircumflex" unicode="&#x177;" horiz-adv-x="470" 
d="M84 -241q-14 0 -28 2t-27 5l7 49q22 -8 46 -8q37 0 57 24t34 61l40 105l-195 469h61l162 -411l2 2l150 409h59l-232 -596q-20 -51 -50.5 -81t-85.5 -30zM380 564h-53l-86 115l-86 -115h-53l107 144h64z" />
    <glyph glyph-name="Ydieresis" unicode="&#x178;" horiz-adv-x="583" 
d="M320 0h-57v306l-259 402h71l218 -353l219 353h66l-258 -402v-306zM341 851q0 17 12 30t30 13q19 0 31 -13t12 -30t-12 -30.5t-31 -13.5q-18 0 -30 13.5t-12 30.5zM160 851q0 17 12 30t31 13q18 0 30 -13t12 -30t-12 -30.5t-30 -13.5q-19 0 -31 13.5t-12 30.5z" />
    <glyph glyph-name="Zacute" unicode="&#x179;" horiz-adv-x="579" 
d="M536 657l-428 -606h436v-51h-506v50l429 607h-418v51h487v-51zM299 764h-47l101 144h72z" />
    <glyph glyph-name="zacute" unicode="&#x17a;" horiz-adv-x="441" 
d="M393 425l-286 -378h297v-47h-368v40l287 380h-272v46h342v-41zM233 564h-47l101 144h72z" />
    <glyph glyph-name="Zdotaccent" unicode="&#x17b;" horiz-adv-x="579" 
d="M536 657l-428 -606h436v-51h-506v50l429 607h-418v51h487v-51zM332 851q0 -18 -13 -29.5t-28 -11.5t-28 11.5t-13 29.5t13 29.5t28 11.5t28 -11.5t13 -29.5z" />
    <glyph glyph-name="zdotaccent" unicode="&#x17c;" horiz-adv-x="441" 
d="M393 425l-286 -378h297v-47h-368v40l287 380h-272v46h342v-41zM264 651q0 -18 -13 -29.5t-28 -11.5t-28 11.5t-13 29.5t13 29.5t28 11.5t28 -11.5t13 -29.5z" />
    <glyph glyph-name="Zcaron" unicode="&#x17d;" horiz-adv-x="579" 
d="M536 657l-428 -606h436v-51h-506v50l429 607h-418v51h487v-51zM323 764h-64l-107 144h53l86 -115l86 115h53z" />
    <glyph glyph-name="zcaron" unicode="&#x17e;" horiz-adv-x="441" 
d="M393 425l-286 -378h297v-47h-368v40l287 380h-272v46h342v-41zM256 564h-64l-107 144h53l86 -115l86 115h53z" />
    <glyph glyph-name="florin" unicode="&#x192;" horiz-adv-x="574" 
d="M429 372h-120l-69 -369q-5 -27 -14.5 -52.5t-26 -46t-41.5 -32.5t-62 -12q-20 0 -37.5 3t-34.5 13l22 44q22 -12 51 -12q24 0 40 9.5t26 25t15.5 36t9.5 41.5l65 352h-109v44h118l28 152q5 30 14.5 57.5t26.5 48.5t42.5 33.5t61.5 12.5q24 0 46.5 -6.5t39.5 -19.5
l-27 -39q-26 17 -56 17q-26 0 -42.5 -11.5t-27.5 -29t-16.5 -37.5t-8.5 -37l-25 -141h111v-44z" />
    <glyph glyph-name="Scommaaccent" unicode="&#x218;" horiz-adv-x="566" 
d="M450 606q-29 35 -67 53.5t-89 18.5q-29 0 -58 -8.5t-52.5 -26.5t-38.5 -45t-15 -63q0 -39 16 -64t42 -42.5t59.5 -29t68.5 -23.5t68.5 -26t59.5 -35.5t42 -53.5t16 -80q0 -51 -19.5 -88.5t-51 -62.5t-72.5 -37t-83 -12q-69 0 -122.5 26.5t-91.5 75.5l40 35q38 -45 80 -66
t94 -21q31 0 61 9.5t54 28t38.5 46t14.5 63.5q0 39 -16 64.5t-42 43.5t-59.5 30t-68 24t-68 26t-59.5 36t-42 54t-16 79q0 49 20 85t51.5 60t71.5 35.5t81 11.5q70 0 118.5 -24.5t75.5 -59.5zM259 -231h-45l59 185h57z" />
    <glyph glyph-name="scommaaccent" unicode="&#x219;" horiz-adv-x="435" 
d="M337 369q-17 29 -47.5 46.5t-69.5 17.5q-18 0 -37 -4.5t-34 -14.5t-24.5 -25t-9.5 -37q0 -39 29.5 -58t87.5 -31q75 -17 115.5 -47t40.5 -87q0 -37 -14.5 -63.5t-38 -44t-54 -25.5t-62.5 -8q-54 0 -100.5 21t-76.5 66l43 31q20 -32 55.5 -52t78.5 -20q22 0 42.5 5
t36.5 16t26 28.5t10 41.5q0 31 -20 48t-50 27.5t-65.5 18.5t-65.5 22.5t-50 39t-20 67.5q0 34 13.5 58.5t35.5 40.5t51 23.5t59 7.5q51 0 92.5 -20.5t64.5 -58.5zM190 -231h-45l59 185h57z" />
    <glyph glyph-name="uni021A" unicode="&#x21a;" horiz-adv-x="561" 
d="M309 0h-57v657h-238v51h533v-51h-238v-657zM255 -230h-45l59 185h57z" />
    <glyph glyph-name="uni021B" unicode="&#x21b;" horiz-adv-x="313" 
d="M294 420h-133v-295q0 -50 20.5 -68t53.5 -18q30 0 57 13l3 -47q-17 -6 -35 -9.5t-39 -3.5t-41.5 6t-36.5 20t-26 37t-10 57v308h-98v46h97v133h55v-133h133v-46zM169 -230h-45l59 185h57z" />
    <glyph glyph-name="dotlessj" unicode="&#x237;" horiz-adv-x="244" 
d="M-16 -189q22 -5 38 -5q24 0 38.5 8.5t22 23t10 34t2.5 41.5v553h54v-560q0 -30 -5.5 -57t-19.5 -46.5t-38.5 -31t-62.5 -11.5q-10 0 -23 1t-24 5z" />
    <glyph glyph-name="circumflex" unicode="&#x2c6;" horiz-adv-x="240" 
d="M259 564h-53l-86 115l-86 -115h-53l107 144h64z" />
    <glyph glyph-name="caron" unicode="&#x2c7;" horiz-adv-x="240" 
d="M152 564h-64l-107 144h53l86 -115l86 115h53z" />
    <glyph glyph-name="uni02C9" unicode="&#x2c9;" horiz-adv-x="240" 
d="M249 806h-258v44h258v-44z" />
    <glyph glyph-name="breve" unicode="&#x2d8;" horiz-adv-x="240" 
d="M260 705q-5 -63 -43 -96.5t-98 -33.5q-58 0 -96.5 33.5t-43.5 96.5h37q8 -43 36.5 -64.5t66.5 -21.5q40 0 68.5 20.5t36.5 65.5h36z" />
    <glyph glyph-name="dotaccent" unicode="&#x2d9;" horiz-adv-x="240" 
d="M161 651q0 -18 -13 -29.5t-28 -11.5t-28 11.5t-13 29.5t13 29.5t28 11.5t28 -11.5t13 -29.5z" />
    <glyph glyph-name="ring" unicode="&#x2da;" horiz-adv-x="240" 
d="M185 650q0 27 -19 46t-46 19t-46 -19t-19 -46t19 -46t46 -19t46 19t19 46zM216 650q0 -20 -7.5 -37.5t-21 -30.5t-31 -20t-36.5 -7q-20 0 -37 7t-30.5 20t-21 30.5t-7.5 37.5t7.5 37.5t21 30t30.5 20t37 7.5q19 0 36.5 -7.5t31 -20t21 -30t7.5 -37.5z" />
    <glyph glyph-name="ogonek" unicode="&#x2db;" horiz-adv-x="240" 
d="M209 -188q-17 -17 -40 -26t-48 -9q-35 0 -61.5 23t-26.5 61q0 20 8 39t21 36.5t29 33.5t32 30h40q-39 -40 -60 -68t-21 -59q0 -24 15.5 -38.5t38.5 -14.5q16 0 31 6.5t25 17.5z" />
    <glyph glyph-name="tilde" unicode="&#x2dc;" horiz-adv-x="240" 
d="M-29 581q6 38 25 66t57 28q16 0 34.5 -7.5t36.5 -16t35 -16t29 -7.5q21 0 31 14.5t15 34.5h35q-6 -38 -25 -65.5t-56 -27.5q-16 0 -34.5 7.5t-36.5 16t-34.5 16t-29.5 7.5q-21 0 -31.5 -15t-15.5 -35h-35z" />
    <glyph glyph-name="hungarumlaut" unicode="&#x2dd;" horiz-adv-x="240" 
d="M225 708h72l-126 -144h-47zM71 708h72l-126 -144h-47z" />
    <glyph glyph-name="uni0394" unicode="&#x394;" horiz-adv-x="666" 
d="M331 659l-237 -610h476zM22 0l279 712h61l284 -712h-624z" />
    <glyph glyph-name="uni03A9" unicode="&#x3a9;" horiz-adv-x="742" 
d="M440 0v175q46 8 80.5 30t57.5 54t35 72t12 85q0 55 -20 102t-55 81.5t-82.5 53.5t-102.5 19q-54 0 -101 -19t-82.5 -53.5t-55.5 -81.5t-20 -102q0 -45 11.5 -85.5t35 -72.5t58 -54t80.5 -29v-175h-238v47h195v94q-47 13 -83 39.5t-61 63.5t-38 81t-13 92q0 66 25 121.5
t67.5 96t99.5 63.5t121 23t120.5 -22.5t99 -63t67.5 -96t25 -121.5q0 -48 -13 -92.5t-37.5 -81t-61 -63.5t-83.5 -40v-94h195v-47h-238z" />
    <glyph glyph-name="uni03BC" unicode="&#x3bc;" horiz-adv-x="556" 
d="M79 466h52v-264q0 -39 6.5 -70t22 -52.5t41 -33t63.5 -11.5q32 0 60 13t49 38t33 61t12 82v237h53v-359q0 -25 1 -54t3 -53h-57v89h-2q-11 -22 -28.5 -41t-39 -32.5t-46.5 -21t-50 -7.5q-42 0 -71.5 12.5t-49.5 33.5v-261h-52v694z" />
    <glyph glyph-name="pi" unicode="&#x3c0;" horiz-adv-x="561" 
d="M523 9q-15 -7 -29 -11t-31 -4q-27 0 -41.5 9t-21 24t-8 35.5t-1.5 43.5v312h-234v-418h-51v418h-71v48h483v-48h-76v-320q0 -26 6.5 -42.5t35.5 -16.5q18 0 39 8v-38z" />
    <glyph glyph-name="Wgrave" unicode="&#x1e80;" horiz-adv-x="967" 
d="M262 75h2l184 633h71l185 -633h3l182 633h60l-210 -708h-69l-186 632h-2l-185 -632h-69l-210 708h60zM339 908h72l101 -144h-47z" />
    <glyph glyph-name="wgrave" unicode="&#x1e81;" horiz-adv-x="732" 
d="M86 466l117 -398h2l133 398h55l135 -398h2l116 398h57l-144 -466h-61l-132 396h-2l-131 -396h-61l-144 466h58zM213 708h72l101 -144h-47z" />
    <glyph glyph-name="Wacute" unicode="&#x1e82;" horiz-adv-x="967" 
d="M262 75h2l184 633h71l185 -633h3l182 633h60l-210 -708h-69l-186 632h-2l-185 -632h-69l-210 708h60zM503 764h-47l101 144h72z" />
    <glyph glyph-name="wacute" unicode="&#x1e83;" horiz-adv-x="732" 
d="M86 466l117 -398h2l133 398h55l135 -398h2l116 398h57l-144 -466h-61l-132 396h-2l-131 -396h-61l-144 466h58zM393 564h-47l101 144h72z" />
    <glyph glyph-name="Wdieresis" unicode="&#x1e84;" horiz-adv-x="967" 
d="M262 75h2l184 633h71l185 -633h3l182 633h60l-210 -708h-69l-186 632h-2l-185 -632h-69l-210 708h60zM531 851q0 17 12 30t30 13q19 0 31 -13t12 -30t-12 -30.5t-31 -13.5q-18 0 -30 13.5t-12 30.5zM350 851q0 17 12 30t31 13q18 0 30 -13t12 -30t-12 -30.5t-30 -13.5
q-19 0 -31 13.5t-12 30.5z" />
    <glyph glyph-name="wdieresis" unicode="&#x1e85;" horiz-adv-x="732" 
d="M86 466l117 -398h2l133 398h55l135 -398h2l116 398h57l-144 -466h-61l-132 396h-2l-131 -396h-61l-144 466h58zM413 651q0 17 12 30t30 13q19 0 31 -13t12 -30t-12 -30.5t-31 -13.5q-18 0 -30 13.5t-12 30.5zM232 651q0 17 12 30t31 13q18 0 30 -13t12 -30t-12 -30.5
t-30 -13.5q-19 0 -31 13.5t-12 30.5z" />
    <glyph glyph-name="Ygrave" unicode="&#x1ef2;" horiz-adv-x="583" 
d="M320 0h-57v306l-259 402h71l218 -353l219 353h66l-258 -402v-306zM155 908h72l101 -144h-47z" />
    <glyph glyph-name="ygrave" unicode="&#x1ef3;" horiz-adv-x="470" 
d="M84 -241q-14 0 -28 2t-27 5l7 49q22 -8 46 -8q37 0 57 24t34 61l40 105l-195 469h61l162 -411l2 2l150 409h59l-232 -596q-20 -51 -50.5 -81t-85.5 -30zM101 708h72l101 -144h-47z" />
    <glyph glyph-name="endash" unicode="&#x2013;" horiz-adv-x="400" 
d="M370 223h-340v46h340v-46z" />
    <glyph glyph-name="emdash" unicode="&#x2014;" horiz-adv-x="600" 
d="M570 223h-540v46h540v-46z" />
    <glyph glyph-name="quoteleft" unicode="&#x2018;" horiz-adv-x="221" 
d="M126 708h45l-64 -233h-57z" />
    <glyph glyph-name="quoteright" unicode="&#x2019;" horiz-adv-x="221" 
d="M95 475h-45l64 233h57z" />
    <glyph glyph-name="quotesinglbase" unicode="&#x201a;" horiz-adv-x="221" 
d="M95 -139h-45l64 233h57z" />
    <glyph glyph-name="quotedblleft" unicode="&#x201c;" horiz-adv-x="376" 
d="M281 708h45l-64 -233h-57zM127 708h45l-65 -233h-57z" />
    <glyph glyph-name="quotedblright" unicode="&#x201d;" horiz-adv-x="376" 
d="M114 708h57l-76 -233h-45zM269 708h57l-77 -233h-45z" />
    <glyph glyph-name="quotedblbase" unicode="&#x201e;" horiz-adv-x="376" 
d="M114 94h57l-76 -233h-45zM269 94h57l-77 -233h-45z" />
    <glyph glyph-name="dagger" unicode="&#x2020;" horiz-adv-x="545" 
d="M299 503h201v-48h-201v-581h-53v581h-201v48h201v205h53v-205z" />
    <glyph glyph-name="daggerdbl" unicode="&#x2021;" horiz-adv-x="545" 
d="M299 512h195v-49h-195v-344h195v-49h-195v-196h-53v196h-195v49h195v344h-195v49h195v196h53v-196z" />
    <glyph glyph-name="bullet" unicode="&#x2022;" horiz-adv-x="500" 
d="M73 354q0 37 14 69t38 56t56 38t69 14t69 -14t56 -38t38 -56t14 -69t-14 -69t-38 -56t-56 -38t-69 -14t-69 14t-56 38t-38 56t-14 69z" />
    <glyph glyph-name="ellipsis" unicode="&#x2026;" horiz-adv-x="1000" 
d="M878 40q0 -19 -12.5 -32.5t-31.5 -13.5q-20 0 -32.5 13.5t-12.5 32.5q0 17 12.5 31t32.5 14t32 -14t12 -31zM545 40q0 -19 -12.5 -32.5t-32.5 -13.5t-32.5 13.5t-12.5 32.5q0 17 12.5 31t32.5 14t32.5 -14t12.5 -31zM211 40q0 -19 -12.5 -32.5t-32.5 -13.5t-32 13.5
t-12 32.5q0 17 12 31t32 14t32.5 -14t12.5 -31z" />
    <glyph glyph-name="perthousand" unicode="&#x2030;" horiz-adv-x="1000" 
d="M181 460q22 0 41.5 8.5t34 23t23 34t8.5 42.5q0 22 -8.5 42t-23 34.5t-34 23t-41.5 8.5t-41.5 -8.5t-33.5 -23t-22.5 -34.5t-8.5 -42q0 -23 8.5 -42.5t22.5 -34t33.5 -23t41.5 -8.5zM181 416q-31 0 -58.5 12t-48 32.5t-32.5 48t-12 59.5q0 31 12 58.5t32.5 48.5t48 33
t58.5 12t59 -12t48 -33t32 -48.5t12 -58.5q0 -32 -12 -59.5t-32 -48t-48 -32.5t-59 -12zM140 -30l-41 22l448 746l40 -22zM821 34q22 0 41.5 8.5t34 23t23 34t8.5 42.5q0 22 -8.5 42t-23 34.5t-34 23t-41.5 8.5t-41.5 -8.5t-33.5 -23t-22.5 -34.5t-8.5 -42q0 -23 8.5 -42.5
t22.5 -34t33.5 -23t41.5 -8.5zM821 -10q-31 0 -58.5 12t-48 32.5t-32.5 48t-12 59.5q0 31 12 58.5t32.5 48.5t48 33t58.5 12t59 -12t48 -33t32 -48.5t12 -58.5q0 -32 -12 -59.5t-32 -48t-48 -32.5t-59 -12zM473 34q22 0 42 8.5t34 23t22.5 34t8.5 42.5q0 22 -8.5 42
t-22.5 34.5t-34 23t-42 8.5t-41 -8.5t-33.5 -23t-22.5 -34.5t-8 -42q0 -23 8 -42.5t22.5 -34t33.5 -23t41 -8.5zM473 -10q-31 0 -58.5 12t-47.5 32.5t-32 48t-12 59.5q0 31 12 58.5t32 48.5t47.5 33t58.5 12t59 -12t48 -33t32 -48.5t12 -58.5q0 -32 -12 -59.5t-32 -48
t-48 -32.5t-59 -12z" />
    <glyph glyph-name="guilsinglleft" unicode="&#x2039;" horiz-adv-x="315" 
d="M239 60l-38 -26l-135 205l134 205l38 -26l-114 -179z" />
    <glyph glyph-name="guilsinglright" unicode="&#x203a;" horiz-adv-x="315" 
d="M76 418l38 27l135 -206l-134 -205l-38 26l114 179z" />
    <glyph glyph-name="fraction" unicode="&#x2044;" horiz-adv-x="100" 
d="M-160 -30l-42 22l448 746l41 -22z" />
    <glyph glyph-name="zero.superior" unicode="&#x2070;" 
d="M271 663q0 27 -3.5 57.5t-13.5 57t-27.5 44t-44.5 17.5q-28 0 -45.5 -17.5t-27.5 -44t-13.5 -57t-3.5 -57.5t3.5 -58t13.5 -57t27.5 -43.5t45.5 -17.5q27 0 44.5 17.5t27.5 43.5t13.5 57t3.5 58zM321 663q0 -39 -6.5 -78.5t-22 -70.5t-42.5 -50.5t-68 -19.5
q-42 0 -69 19.5t-42.5 50.5t-22 70.5t-6.5 78.5t6.5 78t22 70.5t42.5 51t69 19.5q41 0 68 -19.5t42.5 -50.5t22 -70.5t6.5 -78.5z" />
    <glyph glyph-name="four.superior" unicode="&#x2074;" 
d="M223 810h-3l-137 -214h140v214zM223 452v101h-190v43l177 278h57v-278h62v-43h-62v-101h-44z" />
    <glyph glyph-name="five.superior" unicode="&#x2075;" 
d="M313 586q0 -66 -40 -104t-100 -38q-48 0 -80 22t-49 57l44 18q14 -25 35 -39.5t50 -14.5q38 0 64.5 25t26.5 71q0 43 -26 69.5t-71 26.5q-23 0 -45.5 -7.5t-45.5 -20.5l4 223h216v-44h-169l-3 -119q11 5 25.5 7t28.5 2q63 0 99 -37t36 -97z" />
    <glyph glyph-name="six.superior" unicode="&#x2076;" 
d="M271 579q0 39 -24 65t-63 26q-40 0 -65.5 -26.5t-25.5 -64.5q0 -40 25 -66t65 -26q38 0 63 26t25 66zM320 579q0 -30 -10.5 -54.5t-29 -42.5t-43.5 -28t-55 -10t-55 10t-43 28t-28.5 42.5t-10.5 54.5q0 29 10.5 57t27.5 55l112 183h57l-110 -173l1 -1q21 12 46 12
q28 0 52 -10t41.5 -27.5t27.5 -42t10 -53.5z" />
    <glyph glyph-name="seven.superior" unicode="&#x2077;" 
d="M89 452l169 378h-196v44h249v-39l-168 -383h-54z" />
    <glyph glyph-name="eight.superior" unicode="&#x2078;" 
d="M182 654q-38 0 -63 -24t-25 -60q0 -35 24.5 -59t63.5 -24t63 24t24 59q0 36 -24.5 60t-62.5 24zM182 839q-31 0 -51.5 -19.5t-20.5 -51.5q0 -30 20.5 -50.5t51.5 -20.5t51.5 20.5t20.5 50.5q0 32 -20.5 51.5t-51.5 19.5zM317 568q0 -28 -11 -51t-29.5 -39t-43 -25
t-51.5 -9t-52 9t-43.5 25t-29.5 39t-11 51q0 37 19 65.5t52 42.5v1q-29 15 -42 40t-13 53q0 25 9.5 45.5t26 35.5t38 23t46.5 8t46.5 -8t38 -23t26 -35.5t9.5 -45.5q0 -29 -14.5 -54t-41.5 -39v-1q33 -14 52 -43t19 -65z" />
    <glyph glyph-name="nine.superior" unicode="&#x2079;" 
d="M271 748q0 38 -25.5 64.5t-63.5 26.5q-39 0 -64 -26.5t-25 -64.5q0 -39 24 -65t64 -26q39 0 64.5 26.5t25.5 64.5zM319 748q-1 -29 -11 -57.5t-27 -56.5l-112 -182h-57l111 174l-1 1q-20 -12 -47 -12q-28 0 -52 10t-41.5 27.5t-27.5 42t-10 53.5t10.5 53.5t29 42.5
t43.5 28t55 10t55 -10t43 -28t28.5 -42.5t10.5 -53.5z" />
    <glyph glyph-name="zero.inferior" unicode="&#x2080;" 
d="M271 73q0 27 -3.5 57.5t-13.5 57t-27.5 44t-44.5 17.5q-28 0 -45.5 -17.5t-27.5 -44t-13.5 -57t-3.5 -57.5t3.5 -58t13.5 -57t27.5 -43.5t45.5 -17.5q27 0 44.5 17.5t27.5 43.5t13.5 57t3.5 58zM321 73q0 -39 -6.5 -78.5t-22 -70.5t-42.5 -50.5t-68 -19.5q-42 0 -69 19.5
t-42.5 50.5t-22 70.5t-6.5 78.5t6.5 78t22 70.5t42.5 51t69 19.5q41 0 68 -19.5t42.5 -50.5t22 -70.5t6.5 -78.5z" />
    <glyph glyph-name="one.inferior" unicode="&#x2081;" 
d="M221 -138h-50v361l-73 -59l-30 34l111 85h42v-421z" />
    <glyph glyph-name="two.inferior" unicode="&#x2082;" 
d="M313 -138h-268v46l163 169q26 26 38.5 50t13.5 50q0 34 -21.5 52.5t-53.5 18.5q-30 0 -52.5 -18t-30.5 -53l-47 8q10 51 46 79t84 28q54 0 90 -29.5t36 -83.5q0 -43 -21 -73t-54 -64l-132 -136h209v-44z" />
    <glyph glyph-name="three.inferior" unicode="&#x2083;" 
d="M174 -146q-48 0 -82 21.5t-53 66.5l45 16q12 -30 36.5 -45.5t53.5 -15.5q37 0 62 21.5t25 61.5q0 22 -9 37t-23.5 25t-33 14.5t-37.5 4.5h-24v41h24q42 0 66.5 20t24.5 58q0 32 -22.5 51t-53.5 19q-23 0 -44 -12.5t-34 -35.5l-39 21q21 35 51.5 52t67.5 17
q54 0 87.5 -28.5t33.5 -83.5q0 -34 -17.5 -58.5t-46.5 -35.5l-3 -2q37 -11 58.5 -37t21.5 -68q0 -31 -11 -54.5t-29.5 -39t-43 -23.5t-51.5 -8z" />
    <glyph glyph-name="four.inferior" unicode="&#x2084;" 
d="M223 220h-3l-137 -214h140v214zM223 -138v101h-190v43l177 278h57v-278h62v-43h-62v-101h-44z" />
    <glyph glyph-name="five.inferior" unicode="&#x2085;" 
d="M313 -4q0 -66 -40 -104t-100 -38q-48 0 -80 22t-49 57l44 18q14 -25 35 -39.5t50 -14.5q38 0 64.5 25t26.5 71q0 43 -26 69.5t-71 26.5q-23 0 -45.5 -7.5t-45.5 -20.5l4 223h216v-44h-169l-3 -119q11 5 25.5 7t28.5 2q63 0 99 -37t36 -97z" />
    <glyph glyph-name="six.inferior" unicode="&#x2086;" 
d="M271 -11q0 39 -24 65t-63 26q-40 0 -65.5 -26.5t-25.5 -64.5q0 -40 25 -66t65 -26q38 0 63 26t25 66zM320 -11q0 -30 -10.5 -54.5t-29 -42.5t-43.5 -28t-55 -10t-55 10t-43 28t-28.5 42.5t-10.5 54.5q0 29 10.5 57t27.5 55l112 183h57l-110 -173l1 -1q21 12 46 12
q28 0 52 -10t41.5 -27.5t27.5 -42t10 -53.5z" />
    <glyph glyph-name="seven.inferior" unicode="&#x2087;" 
d="M89 -138l169 378h-196v44h249v-39l-168 -383h-54z" />
    <glyph glyph-name="eight.inferior" unicode="&#x2088;" 
d="M182 64q-38 0 -63 -24t-25 -60q0 -35 24.5 -59t63.5 -24t63 24t24 59q0 36 -24.5 60t-62.5 24zM182 249q-31 0 -51.5 -19.5t-20.5 -51.5q0 -30 20.5 -50.5t51.5 -20.5t51.5 20.5t20.5 50.5q0 32 -20.5 51.5t-51.5 19.5zM317 -22q0 -28 -11 -51t-29.5 -39t-43 -25
t-51.5 -9t-52 9t-43.5 25t-29.5 39t-11 51q0 37 19 65.5t52 42.5v1q-29 15 -42 40t-13 53q0 25 9.5 45.5t26 35.5t38 23t46.5 8t46.5 -8t38 -23t26 -35.5t9.5 -45.5q0 -29 -14.5 -54t-41.5 -39v-1q33 -14 52 -43t19 -65z" />
    <glyph glyph-name="nine.inferior" unicode="&#x2089;" 
d="M271 158q0 38 -25.5 64.5t-63.5 26.5q-39 0 -64 -26.5t-25 -64.5q0 -39 24 -65t64 -26q39 0 64.5 26.5t25.5 64.5zM319 158q-1 -29 -11 -57.5t-27 -56.5l-112 -182h-57l111 174l-1 1q-20 -12 -47 -12q-28 0 -52 10t-41.5 27.5t-27.5 42t-10 53.5t10.5 53.5t29 42.5
t43.5 28t55 10t55 -10t43 -28t28.5 -42.5t10.5 -53.5z" />
    <glyph glyph-name="Euro" unicode="&#x20ac;" horiz-adv-x="574" 
d="M510 646q-53 30 -130 30q-88 0 -148.5 -56t-82.5 -158h311l-15 -45h-303q-2 -15 -3.5 -33t-1.5 -35q0 -13 1 -30t3 -29h266l-15 -45h-246q8 -49 29 -88.5t52 -67t69.5 -42.5t82.5 -15q42 0 76 9.5t64 31.5l24 -45q-65 -47 -172 -47q-60 0 -108.5 21.5t-84.5 58t-59 84
t-32 100.5h-72l16 45h51q-1 11 -2 27.5t-1 30.5q0 17 1 36.5t3 32.5h-67l16 45h57q14 64 41.5 113t65.5 83t85.5 51.5t101.5 17.5q42 0 80.5 -9t66.5 -24z" />
    <glyph glyph-name="afii61289" unicode="&#x2113;" horiz-adv-x="500" 
d="M341 593q0 42 -16.5 65.5t-39.5 23.5q-25 0 -45.5 -29.5t-20.5 -94.5v-233q60 69 91 138.5t31 129.5zM407 38q-55 -52 -122 -52q-25 0 -46.5 7.5t-37.5 22.5t-25.5 38.5t-9.5 55.5v129l-59 -65h-2l-21 29l82 84v263q0 84 34.5 127.5t84.5 43.5q45 0 73 -32t28 -92
q0 -73 -43 -152.5t-124 -167.5v-158q0 -27 7.5 -45t18.5 -28t25 -14t27 -4q21 0 43.5 9t44.5 29h2z" />
    <glyph glyph-name="trademark" unicode="&#x2122;" horiz-adv-x="1000" 
d="M917 296h-49v359h-2l-148 -359h-31l-147 359h-2v-359h-49v412h77l138 -334l138 334h75v-412zM397 664h-133v-368h-49v368h-135v44h317v-44z" />
    <glyph glyph-name="Omega" unicode="&#x2126;" horiz-adv-x="742" 
d="M440 0v175q46 8 80.5 30t57.5 54t35 72t12 85q0 55 -20 102t-55 81.5t-82.5 53.5t-102.5 19q-54 0 -101 -19t-82.5 -53.5t-55.5 -81.5t-20 -102q0 -45 11.5 -85.5t35 -72.5t58 -54t80.5 -29v-175h-238v47h195v94q-47 13 -83 39.5t-61 63.5t-38 81t-13 92q0 66 25 121.5
t67.5 96t99.5 63.5t121 23t120.5 -22.5t99 -63t67.5 -96t25 -121.5q0 -48 -13 -92.5t-37.5 -81t-61 -63.5t-83.5 -40v-94h195v-47h-238z" />
    <glyph glyph-name="estimated" unicode="&#x212e;" horiz-adv-x="605" 
d="M448 295v145q-63 60 -147 60t-144 -60v-145h291zM157 259v-181q59 -59 145 -59q63 0 109 28.5t84 91.5l35 -21q-23 -36 -46.5 -61.5t-51 -42t-59.5 -24t-71 -7.5q-59 0 -106.5 21.5t-81.5 59t-52 87.5t-18 108t18 108.5t52 87.5t81.5 58.5t106.5 21.5q58 0 105.5 -20.5
t81.5 -57t53 -87t19 -111.5h-404z" />
    <glyph glyph-name="partialdiff" unicode="&#x2202;" horiz-adv-x="490" 
d="M227 30q46 0 76 25.5t48.5 63t27 80.5t10.5 78q-28 42 -69.5 70.5t-92.5 28.5q-35 0 -61.5 -14t-44.5 -37.5t-27 -54t-9 -62.5q0 -31 9 -62.5t27 -57t44.5 -42t61.5 -16.5zM226 -13q-44 0 -79.5 18t-60.5 48.5t-38.5 71t-13.5 84.5q0 46 13.5 85t38 67t59 44t77.5 16
q52 0 97 -25.5t75 -67.5q0 16 0.5 31t0.5 30q0 52 -10.5 104t-32.5 93t-57.5 66.5t-84.5 25.5q-35 0 -60 -12.5t-51 -32.5l-29 35q31 27 64 40.5t73 13.5q68 0 114 -32t73.5 -83t39 -115t11.5 -128q0 -73 -10.5 -141t-36 -120.5t-67.5 -84t-105 -31.5z" />
    <glyph glyph-name="Delta" unicode="&#x2206;" horiz-adv-x="666" 
d="M331 659l-237 -610h476zM22 0l279 712h61l284 -712h-624z" />
    <glyph glyph-name="product" unicode="&#x220f;" horiz-adv-x="709" 
d="M579 -214v951h-449v-951h-53v1000h555v-1000h-53z" />
    <glyph glyph-name="summation" unicode="&#x2211;" horiz-adv-x="601" 
d="M31 -214v45l332 458l-318 451v46h512v-49h-445l316 -448l-333 -454h474v-49h-538z" />
    <glyph glyph-name="minus" unicode="&#x2212;" horiz-adv-x="666" 
d="M581 280h-496v48h496v-48z" />
    <glyph glyph-name="uni2215" unicode="&#x2215;" horiz-adv-x="100" 
d="M-160 -30l-42 22l448 746l41 -22z" />
    <glyph glyph-name="uni2219" unicode="&#x2219;" horiz-adv-x="254" 
d="M172 296q0 -18 -12.5 -31.5t-32.5 -13.5t-32.5 13.5t-12.5 31.5t12.5 32t32.5 14t32.5 -14t12.5 -32z" />
    <glyph glyph-name="radical" unicode="&#x221a;" horiz-adv-x="488" 
d="M283 -214h-56l-165 348l-51 -24l-19 41l94 44l162 -344l194 935h50z" />
    <glyph glyph-name="infinity" unicode="&#x221e;" horiz-adv-x="735" 
d="M559 153q42 0 63.5 28t21.5 67q0 42 -22.5 71t-65.5 29q-20 0 -39.5 -9t-39 -23t-38.5 -32t-38 -37q39 -38 77.5 -66t80.5 -28zM185 153q19 0 39 8t39.5 21t39 30.5t37.5 35.5q-19 18 -38.5 36t-39.5 32t-40 22.5t-40 8.5q-42 0 -63.5 -29.5t-21.5 -68.5q0 -42 23 -69
t65 -27zM184 107q-30 0 -54.5 10.5t-42 29.5t-27 45t-9.5 57q0 30 9.5 56t26.5 45.5t41.5 30.5t54.5 11q28 0 53.5 -10.5t49 -27t45 -37t40.5 -39.5q19 19 40 39.5t43.5 37t47.5 27.5t53 11q30 0 55 -10.5t42.5 -29.5t27.5 -45t10 -57t-9.5 -57t-27 -45.5t-42.5 -30.5
t-55 -11q-28 0 -53 10t-48 26t-44 36t-40 39q-21 -19 -42 -38.5t-44 -35.5t-48 -26.5t-53 -10.5z" />
    <glyph glyph-name="integral" unicode="&#x222b;" horiz-adv-x="541" 
d="M162 -210q-21 0 -38.5 9.5t-17.5 32.5q0 12 9 20t20 8t17.5 -5.5t11 -12.5t9 -12.5t10.5 -5.5q13 0 21 19t12 45.5t5 54.5t1 45l1 167v40.5v76t0.5 92.5t0.5 90.5v69.5v30q1 31 2.5 70.5t11.5 74.5t32 59t65 24q21 0 41.5 -10t20.5 -34q0 -14 -9 -21.5t-23 -7.5
q-11 0 -17.5 6t-11 12.5t-9 12.5t-11.5 6q-17 0 -25 -22.5t-11.5 -52.5t-3.5 -61v-49v-507q0 -53 -2.5 -100.5t-14 -84t-34.5 -58t-63 -21.5z" />
    <glyph glyph-name="approxequal" unicode="&#x2248;" horiz-adv-x="666" 
d="M62 91q3 24 11 47.5t22.5 42t36 30t51.5 11.5q33 0 70 -11.5t74 -25t72 -24.5t64 -11q41 0 60 24.5t25 56.5h36q-3 -24 -11 -47.5t-23 -41.5t-37 -29.5t-52 -11.5q-32 0 -68.5 11t-73.5 24.5t-71.5 25t-61.5 11.5q-41 0 -62 -25t-25 -57h-37zM62 267q3 24 11 47.5
t22.5 42t36.5 29.5t52 11q33 0 70.5 -11.5t74.5 -25t71.5 -24.5t62.5 -11q41 0 60.5 24.5t25.5 56.5h35q-2 -24 -10 -47t-23 -41t-37 -29t-52 -11q-32 0 -69 11t-74 24.5t-71.5 24.5t-61.5 11q-41 0 -62 -25t-25 -57h-37z" />
    <glyph glyph-name="notequal" unicode="&#x2260;" horiz-adv-x="666" 
d="M295 147l-79 -153l-42 22l68 131h-155v47h180l70 137h-250v48h276l76 147l42 -22l-65 -125h163v-48h-188l-71 -137h259v-47h-284z" />
    <glyph glyph-name="lessequal" unicode="&#x2264;" horiz-adv-x="666" 
d="M87 4v48h492v-48h-492zM87 295v52l492 200v-52l-430 -174l430 -174v-51z" />
    <glyph glyph-name="greaterequal" unicode="&#x2265;" horiz-adv-x="666" 
d="M87 4v48h492v-48h-492zM87 96v51l431 174l-431 174v52l492 -200v-52z" />
    <glyph glyph-name="lozenge" unicode="&#x25ca;" horiz-adv-x="593" 
d="M296 697l-141 -341l141 -341l141 341zM321 -35h-51l-167 391l167 391h51l169 -391z" />
    <glyph glyph-name="f_i" unicode="&#xf001;" horiz-adv-x="529" 
d="M282 420h-114v-420h-55v420h-97v46h97v139q0 81 39 122t108 41q14 0 28 -1.5t25 -5.5l-9 -45q-20 5 -45 5q-27 0 -45 -10t-28 -26.5t-14 -38.5t-4 -47v-133h114v-46zM449 651q0 -18 -12.5 -29.5t-28.5 -11.5q-15 0 -27.5 11.5t-12.5 29.5t12.5 29.5t27.5 11.5
q16 0 28.5 -11.5t12.5 -29.5zM436 0h-55v466h55v-466z" />
    <glyph glyph-name="f_l" unicode="&#xf002;" horiz-adv-x="529" 
d="M282 420h-114v-420h-55v420h-97v46h97v139q0 81 39 122t108 41q14 0 28 -1.5t25 -5.5l-9 -45q-20 5 -45 5q-27 0 -45 -10t-28 -26.5t-14 -38.5t-4 -47v-133h114v-46zM434 0h-54v756h54v-756z" />
    <glyph glyph-name="uniF8FF" unicode="&#xf8ff;" horiz-adv-x="512" 
d="M512 718v-718h-512v718h512zM462 50v617h-412v-617h412zM225 234l-2 17q0 28 2.5 47t9.5 34t18.5 28.5t28.5 30.5q16 16 26 27.5t15 20.5t7 17t2 18q0 36 -22.5 60.5t-53.5 24.5t-53.5 -22t-28.5 -73l-50 8q7 72 44 104.5t91 32.5t89 -35.5t35 -95.5q0 -32 -12.5 -58.5
t-50.5 -61.5q-19 -17 -29 -28.5t-14.5 -23.5t-5 -28.5t-0.5 -43.5h-46zM222 117v67h56v-67h-56z" />
    <glyph glyph-name="f_f" unicode="&#xfb00;" horiz-adv-x="559" 
d="M550 420h-115v-420h-54v420h-213v-420h-55v420h-97v46h97v139q0 81 39 122t108 41q14 0 28 -1.5t25 -5.5l-9 -47q-11 3 -21.5 5t-23.5 2q-27 0 -45 -10t-28 -26.5t-14 -38.5t-4 -47v-133h213v139q0 81 39 122t108 41q31 0 53 -7l-10 -47q-10 3 -21 5t-24 2q-27 0 -45 -10
t-28 -26.5t-14 -38.5t-4 -47v-133h115v-46z" />
    <glyph glyph-name="f_f_i" unicode="&#xfb03;" horiz-adv-x="797" 
d="M550 420h-115v-420h-54v420h-213v-420h-55v420h-97v46h97v139q0 81 39 122t108 41q14 0 28 -1.5t25 -5.5l-9 -47q-11 3 -21.5 5t-23.5 2q-27 0 -45 -10t-28 -26.5t-14 -38.5t-4 -47v-133h213v139q0 81 39 122t108 41q31 0 53 -7l-10 -47q-10 3 -21 5t-24 2q-27 0 -45 -10
t-28 -26.5t-14 -38.5t-4 -47v-133h115v-46zM716 651q0 -18 -12.5 -29.5t-28.5 -11.5q-15 0 -27.5 11.5t-12.5 29.5t12.5 29.5t27.5 11.5q16 0 28.5 -11.5t12.5 -29.5zM703 0h-55v466h55v-466z" />
    <glyph glyph-name="f_f_l" unicode="&#xfb04;" horiz-adv-x="797" 
d="M550 420h-115v-420h-54v420h-213v-420h-55v420h-97v46h97v139q0 81 39 122t108 41q14 0 28 -1.5t25 -5.5l-9 -47q-11 3 -21.5 5t-23.5 2q-27 0 -45 -10t-28 -26.5t-14 -38.5t-4 -47v-133h213v139q0 81 39 122t108 41q31 0 53 -7l-10 -47q-10 3 -21 5t-24 2q-27 0 -45 -10
t-28 -26.5t-14 -38.5t-4 -47v-133h115v-46zM702 0h-54v756h54v-756z" />
    <glyph glyph-name="grave.cap" horiz-adv-x="240" 
d="M-1 908h72l101 -144h-47z" />
    <glyph glyph-name="acute.cap" horiz-adv-x="240" 
d="M115 764h-47l101 144h72z" />
    <glyph glyph-name="circumflex.cap" horiz-adv-x="240" 
d="M259 764h-53l-86 115l-86 -115h-53l107 144h64z" />
    <glyph glyph-name="caron.cap" horiz-adv-x="240" 
d="M152 764h-64l-107 144h53l86 -115l86 115h53z" />
    <glyph glyph-name="caron.alt" horiz-adv-x="240" 
d="M137 523h-45l58 185h57z" />
    <glyph glyph-name="tilde.cap" horiz-adv-x="240" 
d="M-29 781q6 38 25 66t57 28q16 0 34.5 -7.5t36.5 -16t35 -16t29 -7.5q21 0 31 14.5t15 34.5h35q-6 -38 -25 -65.5t-56 -27.5q-16 0 -34.5 7.5t-36.5 16t-34.5 16t-29.5 7.5q-21 0 -31.5 -15t-15.5 -35h-35z" />
    <glyph glyph-name="dieresis.cap" horiz-adv-x="240" 
d="M168 851q0 17 12 30t30 13q19 0 31 -13t12 -30t-12 -30.5t-31 -13.5q-18 0 -30 13.5t-12 30.5zM-13 851q0 17 12 30t31 13q18 0 30 -13t12 -30t-12 -30.5t-30 -13.5q-19 0 -31 13.5t-12 30.5z" />
    <glyph glyph-name="macron.cap" horiz-adv-x="240" 
d="M249 806h-258v44h258v-44z" />
    <glyph glyph-name="breve.cap" horiz-adv-x="240" 
d="M260 905q-5 -63 -43 -96.5t-98 -33.5q-58 0 -96.5 33.5t-43.5 96.5h37q8 -43 36.5 -64.5t66.5 -21.5q40 0 68.5 20.5t36.5 65.5h36z" />
    <glyph glyph-name="ring.cap" horiz-adv-x="240" 
d="M185 850q0 27 -19 46t-46 19t-46 -19t-19 -46t19 -46t46 -19t46 19t19 46zM216 850q0 -20 -7.5 -37.5t-21 -30.5t-31 -20t-36.5 -7q-20 0 -37 7t-30.5 20t-21 30.5t-7.5 37.5t7.5 37.5t21 30t30.5 20t37 7.5q19 0 36.5 -7.5t31 -20t21 -30t7.5 -37.5z" />
    <glyph glyph-name="hungarumlaut.cap" horiz-adv-x="240" 
d="M225 908h72l-126 -144h-47zM71 908h72l-126 -144h-47z" />
    <glyph glyph-name="dotaccent.cap" horiz-adv-x="240" 
d="M161 851q0 -18 -13 -29.5t-28 -11.5t-28 11.5t-13 29.5t13 29.5t28 11.5t28 -11.5t13 -29.5z" />
    <glyph glyph-name="commaaccent" horiz-adv-x="240" 
d="M101 -230h-45l59 185h57z" />
    <glyph glyph-name="commaaccent.alt" horiz-adv-x="240" 
d="M163 749h45l-59 -185h-57z" />
    <glyph glyph-name="zero.denominator" 
d="M271 211q0 27 -3.5 57.5t-13.5 57t-27.5 44t-44.5 17.5q-28 0 -45.5 -17.5t-27.5 -44t-13.5 -57t-3.5 -57.5t3.5 -58t13.5 -57t27.5 -43.5t45.5 -17.5q27 0 44.5 17.5t27.5 43.5t13.5 57t3.5 58zM321 211q0 -39 -6.5 -78.5t-22 -70.5t-42.5 -50.5t-68 -19.5
q-42 0 -69 19.5t-42.5 50.5t-22 70.5t-6.5 78.5t6.5 78t22 70.5t42.5 51t69 19.5q41 0 68 -19.5t42.5 -50.5t22 -70.5t6.5 -78.5z" />
    <glyph glyph-name="one.denominator" 
d="M221 0h-50v361l-73 -59l-30 34l111 85h42v-421z" />
    <glyph glyph-name="two.denominator" 
d="M313 0h-268v46l163 169q26 26 38.5 50t13.5 50q0 34 -21.5 52.5t-53.5 18.5q-30 0 -52.5 -18t-30.5 -53l-47 8q10 51 46 79t84 28q54 0 90 -29.5t36 -83.5q0 -43 -21 -73t-54 -64l-132 -136h209v-44z" />
    <glyph glyph-name="three.denominator" 
d="M174 -8q-48 0 -82 21.5t-53 66.5l45 16q12 -30 36.5 -45.5t53.5 -15.5q37 0 62 21.5t25 61.5q0 22 -9 37t-23.5 25t-33 14.5t-37.5 4.5h-24v41h24q42 0 66.5 20t24.5 58q0 32 -22.5 51t-53.5 19q-23 0 -44 -12.5t-34 -35.5l-39 21q21 35 51.5 52t67.5 17q54 0 87.5 -28.5
t33.5 -83.5q0 -34 -17.5 -58.5t-46.5 -35.5l-3 -2q37 -11 58.5 -37t21.5 -68q0 -31 -11 -54.5t-29.5 -39t-43 -23.5t-51.5 -8z" />
    <glyph glyph-name="four.denominator" 
d="M223 358h-3l-137 -214h140v214zM223 0v101h-190v43l177 278h57v-278h62v-43h-62v-101h-44z" />
    <glyph glyph-name="five.denominator" 
d="M313 134q0 -66 -40 -104t-100 -38q-48 0 -80 22t-49 57l44 18q14 -25 35 -39.5t50 -14.5q38 0 64.5 25t26.5 71q0 43 -26 69.5t-71 26.5q-23 0 -45.5 -7.5t-45.5 -20.5l4 223h216v-44h-169l-3 -119q11 5 25.5 7t28.5 2q63 0 99 -37t36 -97z" />
    <glyph glyph-name="six.denominator" 
d="M271 127q0 39 -24 65t-63 26q-40 0 -65.5 -26.5t-25.5 -64.5q0 -40 25 -66t65 -26q38 0 63 26t25 66zM320 127q0 -30 -10.5 -54.5t-29 -42.5t-43.5 -28t-55 -10t-55 10t-43 28t-28.5 42.5t-10.5 54.5q0 29 10.5 57t27.5 55l112 183h57l-110 -173l1 -1q21 12 46 12
q28 0 52 -10t41.5 -27.5t27.5 -42t10 -53.5z" />
    <glyph glyph-name="seven.denominator" 
d="M89 0l169 378h-196v44h249v-39l-168 -383h-54z" />
    <glyph glyph-name="eight.denominator" 
d="M182 202q-38 0 -63 -24t-25 -60q0 -35 24.5 -59t63.5 -24t63 24t24 59q0 36 -24.5 60t-62.5 24zM182 387q-31 0 -51.5 -19.5t-20.5 -51.5q0 -30 20.5 -50.5t51.5 -20.5t51.5 20.5t20.5 50.5q0 32 -20.5 51.5t-51.5 19.5zM317 116q0 -28 -11 -51t-29.5 -39t-43 -25
t-51.5 -9t-52 9t-43.5 25t-29.5 39t-11 51q0 37 19 65.5t52 42.5v1q-29 15 -42 40t-13 53q0 25 9.5 45.5t26 35.5t38 23t46.5 8t46.5 -8t38 -23t26 -35.5t9.5 -45.5q0 -29 -14.5 -54t-41.5 -39v-1q33 -14 52 -43t19 -65z" />
    <glyph glyph-name="nine.denominator" 
d="M271 296q0 38 -25.5 64.5t-63.5 26.5q-39 0 -64 -26.5t-25 -64.5q0 -39 24 -65t64 -26q39 0 64.5 26.5t25.5 64.5zM319 296q-1 -29 -11 -57.5t-27 -56.5l-112 -182h-57l111 174l-1 1q-20 -12 -47 -12q-28 0 -52 10t-41.5 27.5t-27.5 42t-10 53.5t10.5 53.5t29 42.5
t43.5 28t55 10t55 -10t43 -28t28.5 -42.5t10.5 -53.5z" />
    <glyph glyph-name="zero.numerator" 
d="M271 497q0 27 -3.5 57.5t-13.5 57t-27.5 44t-44.5 17.5q-28 0 -45.5 -17.5t-27.5 -44t-13.5 -57t-3.5 -57.5t3.5 -58t13.5 -57t27.5 -43.5t45.5 -17.5q27 0 44.5 17.5t27.5 43.5t13.5 57t3.5 58zM321 497q0 -39 -6.5 -78.5t-22 -70.5t-42.5 -50.5t-68 -19.5
q-42 0 -69 19.5t-42.5 50.5t-22 70.5t-6.5 78.5t6.5 78t22 70.5t42.5 51t69 19.5q41 0 68 -19.5t42.5 -50.5t22 -70.5t6.5 -78.5z" />
    <glyph glyph-name="one.numerator" 
d="M172 648l-73 -59l-31 34l112 85h41v-421h-49v361z" />
    <glyph glyph-name="two.numerator" 
d="M313 287h-268v46l163 169q26 26 38.5 50t13.5 50q0 34 -21.5 52.5t-53.5 18.5q-30 0 -52.5 -18t-30.5 -53l-47 8q10 51 46 79t84 28q54 0 90 -29.5t36 -83.5q0 -43 -21 -73t-54 -64l-132 -136h209v-44z" />
    <glyph glyph-name="three.numerator" 
d="M174 278q-48 0 -82 21.5t-53 66.5l45 16q12 -30 36.5 -45.5t53.5 -15.5q37 0 62 21.5t25 61.5q0 22 -9 37t-23.5 25t-33 14.5t-37.5 4.5h-24v41h24q42 0 66.5 20t24.5 58q0 32 -22.5 51t-53.5 19q-23 0 -44 -12.5t-34 -35.5l-39 21q21 35 51.5 52t67.5 17
q54 0 87.5 -28.5t33.5 -83.5q0 -34 -17.5 -58.5t-46.5 -35.5l-3 -2q37 -11 58.5 -37t21.5 -68q0 -31 -11 -54.5t-29.5 -39t-43 -23.5t-51.5 -8z" />
    <glyph glyph-name="four.numerator" 
d="M223 644h-3l-137 -214h140v214zM223 286v101h-190v43l177 278h57v-278h62v-43h-62v-101h-44z" />
    <glyph glyph-name="five.numerator" 
d="M313 420q0 -66 -40 -104t-100 -38q-48 0 -80 22t-49 57l44 18q14 -25 35 -39.5t50 -14.5q38 0 64.5 25t26.5 71q0 43 -26 69.5t-71 26.5q-23 0 -45.5 -7.5t-45.5 -20.5l4 223h216v-44h-169l-3 -119q11 5 25.5 7t28.5 2q63 0 99 -37t36 -97z" />
    <glyph glyph-name="six.numerator" 
d="M271 413q0 39 -24 65t-63 26q-40 0 -65.5 -26.5t-25.5 -64.5q0 -40 25 -66t65 -26q38 0 63 26t25 66zM320 413q0 -30 -10.5 -54.5t-29 -42.5t-43.5 -28t-55 -10t-55 10t-43 28t-28.5 42.5t-10.5 54.5q0 29 10.5 57t27.5 55l112 183h57l-110 -173l1 -1q21 12 46 12
q28 0 52 -10t41.5 -27.5t27.5 -42t10 -53.5z" />
    <glyph glyph-name="seven.numerator" 
d="M89 286l169 378h-196v44h249v-39l-168 -383h-54z" />
    <glyph glyph-name="eight.numerator" 
d="M182 488q-38 0 -63 -24t-25 -60q0 -35 24.5 -59t63.5 -24t63 24t24 59q0 36 -24.5 60t-62.5 24zM182 673q-31 0 -51.5 -19.5t-20.5 -51.5q0 -30 20.5 -50.5t51.5 -20.5t51.5 20.5t20.5 50.5q0 32 -20.5 51.5t-51.5 19.5zM317 402q0 -28 -11 -51t-29.5 -39t-43 -25
t-51.5 -9t-52 9t-43.5 25t-29.5 39t-11 51q0 37 19 65.5t52 42.5v1q-29 15 -42 40t-13 53q0 25 9.5 45.5t26 35.5t38 23t46.5 8t46.5 -8t38 -23t26 -35.5t9.5 -45.5q0 -29 -14.5 -54t-41.5 -39v-1q33 -14 52 -43t19 -65z" />
    <glyph glyph-name="nine.numerator" 
d="M271 582q0 38 -25.5 64.5t-63.5 26.5q-39 0 -64 -26.5t-25 -64.5q0 -39 24 -65t64 -26q39 0 64.5 26.5t25.5 64.5zM319 582q-1 -29 -11 -57.5t-27 -56.5l-112 -182h-57l111 174l-1 1q-20 -12 -47 -12q-28 0 -52 10t-41.5 27.5t-27.5 42t-10 53.5t10.5 53.5t29 42.5
t43.5 28t55 10t55 -10t43 -28t28.5 -42.5t10.5 -53.5z" />
    <glyph glyph-name="exclam.sc" horiz-adv-x="275" 
d="M182 39q0 -18 -12 -31.5t-32 -13.5t-32 13.5t-12 31.5t12 31.5t32 13.5t32 -13.5t12 -31.5zM165 151h-55v377h55v-377z" />
    <glyph glyph-name="dollar.sc" horiz-adv-x="478" 
d="M216 485q-35 -2 -61 -23.5t-26 -63.5q0 -41 24.5 -61t62.5 -31v179zM255 44q40 3 66.5 26.5t26.5 68.5q0 42 -26.5 65.5t-66.5 37.5v-198zM216 253q-29 8 -54.5 19.5t-44.5 28t-29.5 39.5t-10.5 55q0 31 11 55t29.5 40.5t44 26t54.5 11.5v56h39v-56q83 -4 133 -57
l-37 -36q-18 23 -44 36t-52 13v-190q72 -22 109.5 -57t37.5 -98q0 -30 -11.5 -55t-31 -43.5t-46.5 -29t-58 -11.5v-58h-39v58q-48 2 -84.5 22t-65.5 56l36 31q21 -29 53 -46.5t61 -18.5v209z" />
    <glyph glyph-name="percent.sc" horiz-adv-x="669" 
d="M184 -30l-38 22l338 564l38 -22zM573 117q0 36 -24.5 60t-59.5 24q-34 0 -58.5 -24t-24.5 -60q0 -37 24.5 -60.5t58.5 -23.5q35 0 59.5 23.5t24.5 60.5zM619 117q0 -27 -10 -51t-27.5 -41.5t-41.5 -27.5t-51 -10t-50.5 10t-41 27.5t-27.5 41.5t-10 51t10 50.5t27.5 41
t41 27.5t50.5 10t51 -10t41.5 -27.5t27.5 -41t10 -50.5zM264 411q0 18 -6.5 33t-18 26.5t-27 18t-32.5 6.5t-32 -6.5t-26.5 -18t-18 -26.5t-6.5 -33q0 -37 24.5 -60.5t58.5 -23.5q35 0 59.5 23.5t24.5 60.5zM310 411q0 -27 -10 -51t-27.5 -41.5t-41.5 -27.5t-51 -10
t-50.5 10t-41 27.5t-27.5 41.5t-10 51t10 50.5t27.5 41t41 27.5t50.5 10t51 -10t41.5 -27.5t27.5 -41t10 -50.5z" />
    <glyph glyph-name="ampersand.sc" horiz-adv-x="569" 
d="M213 259q-48 -23 -70 -52t-22 -71q0 -46 30 -74t76 -28q42 0 74 19.5t55 55.5zM324 425q0 32 -21 51t-51 19t-53 -21t-23 -56q0 -46 51 -100q51 25 74 51.5t23 55.5zM423 117l114 -117h-77l-68 72q-35 -45 -75.5 -65t-91.5 -20q-33 0 -62.5 10t-51.5 29.5t-35 47.5
t-13 63q0 56 32.5 93t84.5 64q-32 36 -45 65t-13 61q0 27 10 49t27 38t41 24.5t52 8.5q57 0 92 -30t35 -84q0 -47 -34 -81.5t-85 -60.5l125 -130l71 127h61z" />
    <glyph glyph-name="parenleft.sc" horiz-adv-x="236" 
d="M84 264q0 -41 7 -82.5t20 -81.5t31 -76.5t40 -66.5l-42 -26q-48 66 -78 152.5t-30 180.5t30 180.5t78 152.5l42 -25q-22 -30 -40 -67t-31 -76.5t-20 -81.5t-7 -83z" />
    <glyph glyph-name="parenright.sc" horiz-adv-x="236" 
d="M203 264q0 -94 -29.5 -180.5t-77.5 -152.5l-43 25q22 30 40.5 66.5t31.5 77t20 82t7 82.5q0 40 -7.5 82t-20.5 82t-31 76.5t-40 66.5l43 26q48 -66 77.5 -152.5t29.5 -180.5z" />
    <glyph glyph-name="bracketleft.sc" horiz-adv-x="236" 
d="M49 -65v658h128v-42h-77v-573h77v-43h-128z" />
    <glyph glyph-name="backslash.sc" horiz-adv-x="289" 
d="M235 -14l-227 541l46 16l228 -541z" />
    <glyph glyph-name="bracketright.sc" horiz-adv-x="236" 
d="M59 -65v43h76v573h-76v42h128v-658h-128z" />
    <glyph glyph-name="braceleft.sc" horiz-adv-x="236" 
d="M145 -65q-17 0 -32.5 5t-27 16t-18 30t-6.5 46v125q0 46 -14.5 64.5t-43.5 18.5v48q29 0 43.5 18.5t14.5 64.5v125q0 27 6.5 46t18 30t27 16t32.5 5h50v-42h-41q-23 0 -32 -16.5t-9 -42.5v-121q0 -51 -19 -74.5t-43 -31.5v-2q24 -8 43 -31.5t19 -75.5v-120q0 -26 9 -42
t32 -16h41v-43h-50z" />
    <glyph glyph-name="slash.sc" horiz-adv-x="289" 
d="M8 2l227 541l47 -16l-227 -541z" />
    <glyph glyph-name="braceright.sc" horiz-adv-x="236" 
d="M41 -65v43h41q23 0 32 16t9 42v121q0 51 18.5 74.5t43.5 31.5v2q-25 8 -43.5 31.5t-18.5 75.5v120q0 26 -9 42.5t-32 16.5h-41v42h49q17 0 32.5 -5t27 -16t18 -30t6.5 -46v-125q0 -46 15 -64.5t44 -18.5v-48q-29 0 -44 -18.5t-15 -64.5v-125q0 -27 -6.5 -46t-18 -30
t-27 -16t-32.5 -5h-49z" />
    <glyph glyph-name="zero.sc" horiz-adv-x="478" 
d="M239 492q-36 0 -58.5 -22.5t-35 -57t-17.5 -74.5t-5 -75t5 -75t17.5 -73.5t35 -55.5t58.5 -22q35 0 57.5 22t35.5 55.5t18 73.5t5 75t-5 75t-18 74.5t-35.5 57t-57.5 22.5zM239 540q51 0 84.5 -24.5t54 -64t29 -89t8.5 -99.5t-8.5 -99.5t-29 -88.5t-54 -63.5t-84.5 -24.5
t-85 24.5t-54.5 63.5t-28.5 88.5t-8 99.5t8 99.5t28.5 89t54.5 64t85 24.5z" />
    <glyph glyph-name="one.sc" horiz-adv-x="478" 
d="M300 0h-56v457l-93 -80l-33 39l132 112h50v-528z" />
    <glyph glyph-name="two.sc" horiz-adv-x="478" 
d="M408 0h-331v55l202 210q32 33 49 64t18 66q0 45 -27.5 70t-69.5 25q-38 0 -65.5 -22.5t-38.5 -67.5l-55 12q14 60 55 94t104 34q66 0 110 -36.5t44 -107.5q0 -45 -23.5 -85.5t-65.5 -83.5l-170 -177h264v-50z" />
    <glyph glyph-name="three.sc" horiz-adv-x="478" 
d="M226 -13q-54 0 -99 26t-70 86l52 20q18 -43 49 -62t68 -19q48 0 80.5 28.5t32.5 79.5q0 28 -10.5 48t-28.5 33t-41.5 18.5t-49.5 5.5h-30v50h30q24 0 45 5.5t36.5 17.5t25 30t9.5 43q0 21 -8 38.5t-22 29.5t-32.5 19t-38.5 7q-30 0 -56 -15t-43 -47l-46 26q51 85 147 85
q32 0 60 -9t49 -27t33 -44.5t12 -60.5q0 -40 -22 -72t-64 -46l-8 -4q51 -11 80 -46.5t29 -83.5q0 -36 -12.5 -65.5t-35 -50.5t-53.5 -32.5t-68 -11.5z" />
    <glyph glyph-name="four.sc" horiz-adv-x="478" 
d="M287 457h-2l-175 -281h177v281zM340 176h78v-49h-78v-127h-53v127h-236v50l224 351h65v-352z" />
    <glyph glyph-name="five.sc" horiz-adv-x="478" 
d="M380 478h-221l-5 -157q31 12 68 12q81 0 128.5 -45t47.5 -123q0 -39 -13 -72t-37 -56.5t-56.5 -36.5t-71.5 -13q-57 0 -99 26.5t-61 71.5l51 23q14 -36 43.5 -53t63.5 -17q54 0 88.5 33.5t34.5 90.5t-35 90.5t-93 33.5q-26 0 -56 -9t-57 -26l6 277h274v-50z" />
    <glyph glyph-name="six.sc" horiz-adv-x="478" 
d="M240 38q52 0 84 33.5t32 84.5q0 49 -31 83t-83 34q-54 0 -86.5 -33t-32.5 -84t33 -84.5t84 -33.5zM240 -13q-38 0 -69.5 12.5t-54.5 34.5t-35.5 53t-12.5 69q0 35 13 70.5t36 72.5l143 229h64l-148 -229h1q17 11 35.5 15.5t36.5 4.5q34 0 63.5 -11.5t51.5 -32.5t34.5 -51
t12.5 -67q0 -38 -12.5 -69t-35 -53.5t-54 -35t-69.5 -12.5z" />
    <glyph glyph-name="seven.sc" horiz-adv-x="478" 
d="M400 481l-213 -481h-63l216 477h-255v51h315v-47z" />
    <glyph glyph-name="eight.sc" horiz-adv-x="478" 
d="M144 396q0 -40 26.5 -65.5t68.5 -25.5q39 0 67 24.5t28 66.5t-26.5 68t-68.5 26t-68.5 -26t-26.5 -68zM126 147q0 -48 31 -78.5t82 -30.5t82 30.5t31 78.5t-32 77.5t-81 29.5q-24 0 -44.5 -8t-36 -22.5t-24 -34t-8.5 -42.5zM388 398q0 -38 -21 -70t-57 -46v-2
q48 -17 72.5 -53.5t24.5 -85.5q0 -36 -13 -64.5t-35.5 -48.5t-53 -30.5t-66.5 -10.5t-67 10.5t-53.5 30.5t-35.5 48.5t-13 64.5q0 49 25.5 85.5t71.5 53.5v2q-36 14 -57 46t-21 70q0 32 11.5 58t32 45t47.5 29t59 10q31 0 58 -10t47.5 -29t32 -45t11.5 -58z" />
    <glyph glyph-name="nine.sc" horiz-adv-x="478" 
d="M237 256q54 0 86 32.5t32 83.5t-32.5 84t-83.5 33q-52 0 -83.5 -33t-31.5 -84q0 -49 30.5 -82.5t82.5 -33.5zM302 229h-4q-17 -11 -34 -15t-34 -4q-34 0 -63.5 11.5t-51.5 32.5t-34.5 51t-12.5 66q0 37 12.5 68t35 53.5t54 35t69.5 12.5q37 0 69 -12t54.5 -34.5
t35.5 -53.5t13 -68q0 -35 -13.5 -71.5t-36.5 -71.5l-143 -229h-64z" />
    <glyph glyph-name="question.sc" horiz-adv-x="353" 
d="M177 -6q-19 0 -31 13.5t-12 30.5q0 18 12 31t31 13q20 0 32 -13t12 -31q0 -17 -12 -30.5t-32 -13.5zM146 194q0 28 10.5 52.5t39.5 53.5q0 1 3.5 4.5t8 7t8 7t3.5 4.5q12 12 20 21.5t13.5 20t8 22t2.5 27.5q0 35 -22 60.5t-61 25.5q-33 0 -56.5 -20t-32.5 -65l-53 9
q11 60 48 92.5t97 32.5q33 0 58.5 -10.5t42.5 -28.5t26 -42t9 -51q0 -44 -16 -72.5t-49 -56.5q-17 -15 -27.5 -27.5t-16.5 -24.5t-8 -25t-2 -29v-25h-54v37z" />
    <glyph glyph-name="a.sc" horiz-adv-x="528" 
d="M148 185h229l-113 279zM70 0h-59l228 528h52l225 -528h-62l-56 137h-270z" />
    <glyph glyph-name="b.sc" horiz-adv-x="508" 
d="M149 50h105q27 0 52 5t44.5 16.5t31.5 30.5t12 47q0 54 -36 77.5t-96 23.5h-113v-200zM149 299h107q22 0 43 5t36.5 16t25 28.5t9.5 42.5q0 24 -9.5 40.5t-26.5 27t-39.5 15t-49.5 4.5h-96v-179zM94 528h168q29 0 58.5 -6.5t53 -22t38 -41t14.5 -62.5q0 -48 -25 -76.5
t-63 -41.5v-2q22 -4 42.5 -14t36 -26t25 -38.5t9.5 -51.5q0 -38 -15.5 -65.5t-41.5 -45.5t-60.5 -26.5t-73.5 -8.5h-166v528z" />
    <glyph glyph-name="c.sc" horiz-adv-x="558" 
d="M527 79q-32 -42 -79.5 -67t-116.5 -25q-60 0 -110 20.5t-86.5 57.5t-57 88t-20.5 111q0 61 21 112t58 87.5t87.5 56.5t109.5 20q54 0 103.5 -20t80.5 -58l-42 -34q-22 28 -60.5 45t-81.5 17q-49 0 -89 -17.5t-68 -48.5t-43.5 -72t-15.5 -88t15 -88t43 -72t67.5 -48.5
t89.5 -17.5q48 0 87.5 18t66.5 53z" />
    <glyph glyph-name="d.sc" horiz-adv-x="607" 
d="M149 50h104q52 0 96 14.5t75 42t48.5 67t17.5 90.5t-17.5 91t-48.5 67t-75 41.5t-96 14.5h-104v-428zM94 528h171q53 0 104 -15.5t91 -47.5t64.5 -82t24.5 -119q0 -68 -24.5 -117.5t-64.5 -82t-91 -48.5t-104 -16h-171v528z" />
    <glyph glyph-name="e.sc" horiz-adv-x="492" 
d="M149 50h283v-50h-338v528h327v-50h-272v-180h256v-49h-256v-199z" />
    <glyph glyph-name="f.sc" horiz-adv-x="463" 
d="M149 0h-55v528h319v-50h-264v-184h247v-49h-247v-245z" />
    <glyph glyph-name="g.sc" horiz-adv-x="615" 
d="M485 433q-25 26 -64.5 41.5t-85.5 15.5q-50 0 -90 -17.5t-68.5 -48.5t-44 -72t-15.5 -87q0 -47 15 -88.5t43.5 -72t69.5 -48.5t92 -18q43 0 78 8.5t61 23.5v162h-123v49h179v-246q-39 -22 -87.5 -35t-108.5 -13q-62 0 -113 21t-88 58t-57.5 88t-20.5 111q0 61 21 111.5
t58 87t88 56.5t111 20t107.5 -17.5t80.5 -49.5z" />
    <glyph glyph-name="h.sc" horiz-adv-x="606" 
d="M94 528h55v-231h307v231h56v-528h-56v249h-307v-249h-55v528z" />
    <glyph glyph-name="i.sc" horiz-adv-x="243" 
d="M149 0h-55v528h55v-528z" />
    <glyph glyph-name="j.sc" horiz-adv-x="392" 
d="M73 108q9 -31 31 -50t56 -19q27 0 44.5 9.5t28 26t14.5 38.5t4 47v368h56v-372q0 -29 -6.5 -59t-23 -54.5t-44.5 -40t-70 -15.5q-58 0 -94 30t-48 75z" />
    <glyph glyph-name="k.sc" horiz-adv-x="502" 
d="M149 292h2l246 236h78l-261 -242l276 -286h-81l-258 277h-2v-277h-55v528h55v-236z" />
    <glyph glyph-name="l.sc" horiz-adv-x="412" 
d="M149 50h244v-50h-299v528h55v-478z" />
    <glyph glyph-name="m.sc" horiz-adv-x="720" 
d="M94 528h88l179 -436l178 436h87v-528h-55v461h-3l-191 -461h-35l-191 461h-2v-461h-55v528z" />
    <glyph glyph-name="n.sc" horiz-adv-x="612" 
d="M461 80h2v448h56v-528h-71l-297 454h-2v-454h-55v528h72z" />
    <glyph glyph-name="o.sc" horiz-adv-x="668" 
d="M551 265q0 46 -15 87.5t-43.5 72.5t-69 49t-90.5 18t-90 -18t-68 -49t-43 -72.5t-15 -87.5q0 -47 15 -88t43.5 -72t68 -49t89.5 -18t90.5 18t69 49t43.5 72t15 88zM611 265q0 -60 -21 -111t-58 -88t-88 -58t-111 -21t-110.5 21t-87 58t-57.5 88t-21 111q0 61 21 111.5
t57.5 87t87 56.5t110.5 20t111 -20t88 -56.5t58 -87t21 -111.5z" />
    <glyph glyph-name="p.sc" horiz-adv-x="477" 
d="M149 269h100q55 0 91 26t36 80q0 55 -36.5 79t-91.5 24h-99v-209zM94 528h160q39 0 72 -9.5t56.5 -28.5t37 -47.5t13.5 -67.5q0 -38 -14 -66.5t-38 -47.5t-57 -29t-72 -10h-103v-222h-55v528z" />
    <glyph glyph-name="q.sc" horiz-adv-x="668" 
d="M117 269q0 -46 15 -86t43 -69.5t67 -46.5t87 -17t87.5 17.5t67 47t42.5 69.5t15 85t-15 85.5t-43 71t-67 48t-87 17.5t-87 -17.5t-66.5 -48t-43 -71t-15.5 -85.5zM634 0h-305q-59 0 -108.5 19t-86 54.5t-57 85t-20.5 110.5q0 59 20.5 109t57 86t86 56t108.5 20
q58 0 108 -20.5t86 -56.5t56.5 -86t20.5 -108q0 -75 -35 -132t-92 -85v-2h161v-50z" />
    <glyph glyph-name="r.sc" horiz-adv-x="491" 
d="M149 292h97q60 0 96 21.5t36 72.5q0 27 -10.5 44.5t-28.5 28t-41.5 15t-49.5 4.5h-99v-186zM149 0h-55v528h159q36 0 69 -7.5t58 -24t40 -44t15 -66.5q0 -30 -10.5 -54t-29 -41.5t-43 -27.5t-52.5 -13l150 -250h-67l-142 243h-92v-243z" />
    <glyph glyph-name="s.sc" horiz-adv-x="440" 
d="M338 441q-17 23 -45.5 37t-63.5 14q-20 0 -40.5 -5.5t-37 -17.5t-26.5 -30t-10 -43q0 -35 20 -55t50 -33t65 -23t65 -26.5t50 -43.5t20 -73q0 -39 -14.5 -68t-39 -48.5t-56 -29t-65.5 -9.5q-49 0 -93.5 19.5t-73.5 55.5l44 37q20 -29 53 -46t71 -17q21 0 42.5 6t38 19
t27 31.5t10.5 44.5q0 36 -20 56t-50 32.5t-65.5 23t-65.5 27t-50 44t-20 74.5q0 37 15 64.5t39.5 45.5t56 27t63.5 9q45 0 84 -16.5t62 -44.5z" />
    <glyph glyph-name="t.sc" horiz-adv-x="428" 
d="M241 0h-56v478h-172v50h402v-50h-174v-478z" />
    <glyph glyph-name="u.sc" horiz-adv-x="574" 
d="M287 -13q-54 0 -92 18t-62.5 47t-35.5 67t-11 79v330h55v-326q0 -31 7.5 -60.5t24.5 -52t45 -36.5t69 -14t69 14t45 36.5t24.5 52t7.5 60.5v326h56v-330q0 -41 -11.5 -79t-36 -67t-62.5 -47t-92 -18z" />
    <glyph glyph-name="v.sc" horiz-adv-x="488" 
d="M243 70h2l170 458h61l-204 -528h-57l-203 528h61z" />
    <glyph glyph-name="w.sc" horiz-adv-x="759" 
d="M213 77h2l132 451h65l132 -451h2l128 451h60l-156 -528h-63l-135 452l-137 -452h-62l-155 528h59z" />
    <glyph glyph-name="x.sc" horiz-adv-x="474" 
d="M237 317l137 211h65l-168 -251l189 -277h-69l-154 235l-154 -235h-69l188 277l-171 251h68z" />
    <glyph glyph-name="y.sc" horiz-adv-x="450" 
d="M252 0h-55v229l-193 299h67l154 -253l155 253h66l-194 -299v-229z" />
    <glyph glyph-name="z.sc" horiz-adv-x="484" 
d="M429 478l-312 -428h317v-50h-384v50l311 428h-303v50h371v-50z" />
    <glyph glyph-name="agrave.sc" horiz-adv-x="528" 
d="M148 185h229l-113 279zM70 0h-59l228 528h52l225 -528h-62l-56 137h-270zM114 729h72l101 -144h-47z" />
    <glyph glyph-name="aacute.sc" horiz-adv-x="528" 
d="M148 185h229l-113 279zM70 0h-59l228 528h52l225 -528h-62l-56 137h-270zM291 585h-47l101 144h72z" />
    <glyph glyph-name="acircumflex.sc" horiz-adv-x="528" 
d="M148 185h229l-113 279zM70 0h-59l228 528h52l225 -528h-62l-56 137h-270zM403 585h-53l-86 115l-86 -115h-53l107 144h64z" />
    <glyph glyph-name="atilde.sc" horiz-adv-x="528" 
d="M148 185h229l-113 279zM70 0h-59l228 528h52l225 -528h-62l-56 137h-270zM116 605q6 38 25 66t57 28q16 0 34.5 -7t37 -16t35 -16t28.5 -7q21 0 31 14.5t15 34.5h35q-6 -38 -24.5 -65.5t-56.5 -27.5q-17 0 -35.5 7.5t-36.5 16t-34.5 16t-28.5 7.5q-21 0 -31.5 -15
t-15.5 -36h-35z" />
    <glyph glyph-name="adieresis.sc" horiz-adv-x="528" 
d="M148 185h229l-113 279zM70 0h-59l228 528h52l225 -528h-62l-56 137h-270zM313 672q0 17 12 30t30 13q19 0 31 -13t12 -30t-12 -30.5t-31 -13.5q-18 0 -30 13.5t-12 30.5zM132 672q0 17 12 30t31 13q18 0 30 -13t12 -30t-12 -30.5t-30 -13.5q-19 0 -31 13.5t-12 30.5z" />
    <glyph glyph-name="amacron.sc" horiz-adv-x="528" 
d="M148 185h229l-113 279zM70 0h-59l228 528h52l225 -528h-62l-56 137h-270zM394 627h-258v44h258v-44z" />
    <glyph glyph-name="abreve.sc" horiz-adv-x="528" 
d="M148 185h229l-113 279zM70 0h-59l228 528h52l225 -528h-62l-56 137h-270zM405 726q-5 -63 -43 -96.5t-98 -33.5q-58 0 -96.5 33.5t-43.5 96.5h37q8 -43 36.5 -64.5t66.5 -21.5q40 0 68.5 20.5t36.5 65.5h36z" />
    <glyph glyph-name="aring.sc" horiz-adv-x="528" 
d="M148 185h229l-113 279zM70 0h-59l228 528h52l225 -528h-62l-56 137h-270zM330 671q0 27 -19 46t-46 19t-46 -19t-19 -46t19 -46t46 -19t46 19t19 46zM361 671q0 -20 -7.5 -37.5t-21 -30.5t-31 -20t-36.5 -7q-20 0 -37 7t-30.5 20t-21 30.5t-7.5 37.5t7.5 37.5t21 30
t30.5 20t37 7.5q19 0 36.5 -7.5t31 -20t21 -30t7.5 -37.5z" />
    <glyph glyph-name="aogonek.sc" horiz-adv-x="528" 
d="M377 185l-113 279l-116 -279h229zM239 528h52l225 -528q-7 -1 -11.5 -1t-11.5 -1q-39 -38 -59.5 -66t-20.5 -59q0 -24 15.5 -38.5t38.5 -14.5q33 0 57 24l16 -32q-17 -17 -40 -26t-48 -9q-35 0 -61.5 23t-26.5 61q0 20 8 39t21 36.5t29 33.5t32 30l-56 137h-270l-58 -137
h-59z" />
    <glyph glyph-name="ae.sc" horiz-adv-x="767" 
d="M178 195h191v283h-10zM424 50h283v-50h-338v147h-222l-95 -147h-64l343 528h365v-50h-272v-180h256v-49h-256v-199z" />
    <glyph glyph-name="cacute.sc" horiz-adv-x="558" 
d="M527 79q-32 -42 -79.5 -67t-116.5 -25q-60 0 -110 20.5t-86.5 57.5t-57 88t-20.5 111q0 61 21 112t58 87.5t87.5 56.5t109.5 20q54 0 103.5 -20t80.5 -58l-42 -34q-22 28 -60.5 45t-81.5 17q-49 0 -89 -17.5t-68 -48.5t-43.5 -72t-15.5 -88t15 -88t43 -72t67.5 -48.5
t89.5 -17.5q48 0 87.5 18t66.5 53zM319 585h-47l101 144h72z" />
    <glyph glyph-name="ccircumflex.sc" horiz-adv-x="558" 
d="M527 79q-32 -42 -79.5 -67t-116.5 -25q-60 0 -110 20.5t-86.5 57.5t-57 88t-20.5 111q0 61 21 112t58 87.5t87.5 56.5t109.5 20q54 0 103.5 -20t80.5 -58l-42 -34q-22 28 -60.5 45t-81.5 17q-49 0 -89 -17.5t-68 -48.5t-43.5 -72t-15.5 -88t15 -88t43 -72t67.5 -48.5
t89.5 -17.5q48 0 87.5 18t66.5 53zM472 585h-53l-86 115l-86 -115h-53l107 144h64z" />
    <glyph glyph-name="ccaron.sc" horiz-adv-x="558" 
d="M527 79q-32 -42 -79.5 -67t-116.5 -25q-60 0 -110 20.5t-86.5 57.5t-57 88t-20.5 111q0 61 21 112t58 87.5t87.5 56.5t109.5 20q54 0 103.5 -20t80.5 -58l-42 -34q-22 28 -60.5 45t-81.5 17q-49 0 -89 -17.5t-68 -48.5t-43.5 -72t-15.5 -88t15 -88t43 -72t67.5 -48.5
t89.5 -17.5q48 0 87.5 18t66.5 53zM363 585h-64l-107 144h53l86 -115l86 115h53z" />
    <glyph glyph-name="cdotaccent.sc" horiz-adv-x="558" 
d="M527 79q-32 -42 -79.5 -67t-116.5 -25q-60 0 -110 20.5t-86.5 57.5t-57 88t-20.5 111q0 61 21 112t58 87.5t87.5 56.5t109.5 20q54 0 103.5 -20t80.5 -58l-42 -34q-22 28 -60.5 45t-81.5 17q-49 0 -89 -17.5t-68 -48.5t-43.5 -72t-15.5 -88t15 -88t43 -72t67.5 -48.5
t89.5 -17.5q48 0 87.5 18t66.5 53zM375 672q0 -18 -13 -29.5t-28 -11.5t-28 11.5t-13 29.5t13 29.5t28 11.5t28 -11.5t13 -29.5z" />
    <glyph glyph-name="ccedilla.sc" horiz-adv-x="558" 
d="M527 79q-32 -40 -79 -65t-113 -27l-41 -65q9 3 18.5 4t21.5 1q15 0 30 -4t27 -13t19.5 -22.5t7.5 -31.5q0 -25 -11 -41.5t-28 -26t-37.5 -13.5t-39.5 -4q-20 0 -46 5t-47 15l13 31q17 -8 37 -12t39 -4q10 0 22.5 2.5t23.5 8t18.5 15t7.5 23.5q0 23 -17.5 33t-42.5 10
q-11 0 -25.5 -2.5t-25.5 -7.5l-15 13l56 88q-54 5 -98.5 27.5t-76.5 58.5t-50 84t-18 105q0 61 21 112t58 87.5t87.5 56.5t109.5 20q54 0 103.5 -20t80.5 -58l-42 -34q-22 28 -60.5 45t-81.5 17q-49 0 -89 -17.5t-68 -48.5t-43.5 -72t-15.5 -88t15 -88t43 -72t67.5 -48.5
t89.5 -17.5q48 0 87.5 18t66.5 53z" />
    <glyph glyph-name="dcaron.sc" horiz-adv-x="607" 
d="M149 50h104q52 0 96 14.5t75 42t48.5 67t17.5 90.5t-17.5 91t-48.5 67t-75 41.5t-96 14.5h-104v-428zM94 528h171q53 0 104 -15.5t91 -47.5t64.5 -82t24.5 -119q0 -68 -24.5 -117.5t-64.5 -82t-91 -48.5t-104 -16h-171v528zM322 585h-64l-107 144h53l86 -115l86 115h53z
" />
    <glyph glyph-name="dcroat.sc" horiz-adv-x="607" 
d="M149 297h154v-42h-154v-205h104q52 0 96 14.5t75 42t48.5 67t17.5 90.5t-17.5 91t-48.5 67t-75 41.5t-96 14.5h-104v-181zM18 297h76v231h171q53 0 104 -15.5t91 -47.5t64.5 -82t24.5 -119q0 -68 -24.5 -117.5t-64.5 -82t-91 -48.5t-104 -16h-171v255h-76v42z" />
    <glyph glyph-name="eth.sc" horiz-adv-x="607" 
d="M149 297h154v-42h-154v-205h104q52 0 96 14.5t75 42t48.5 67t17.5 90.5t-17.5 91t-48.5 67t-75 41.5t-96 14.5h-104v-181zM18 297h76v231h171q53 0 104 -15.5t91 -47.5t64.5 -82t24.5 -119q0 -68 -24.5 -117.5t-64.5 -82t-91 -48.5t-104 -16h-171v255h-76v42z" />
    <glyph glyph-name="egrave.sc" horiz-adv-x="492" 
d="M149 50h283v-50h-338v528h327v-50h-272v-180h256v-49h-256v-199zM124 729h72l101 -144h-47z" />
    <glyph glyph-name="eacute.sc" horiz-adv-x="492" 
d="M149 50h283v-50h-338v528h327v-50h-272v-180h256v-49h-256v-199zM267 585h-47l101 144h72z" />
    <glyph glyph-name="ecircumflex.sc" horiz-adv-x="492" 
d="M149 50h283v-50h-338v528h327v-50h-272v-180h256v-49h-256v-199zM395 585h-53l-86 115l-86 -115h-53l107 144h64z" />
    <glyph glyph-name="ecaron.sc" horiz-adv-x="492" 
d="M149 50h283v-50h-338v528h327v-50h-272v-180h256v-49h-256v-199zM291 585h-64l-107 144h53l86 -115l86 115h53z" />
    <glyph glyph-name="edieresis.sc" horiz-adv-x="492" 
d="M149 50h283v-50h-338v528h327v-50h-272v-180h256v-49h-256v-199zM307 672q0 17 12 30t30 13q19 0 31 -13t12 -30t-12 -30.5t-31 -13.5q-18 0 -30 13.5t-12 30.5zM126 672q0 17 12 30t31 13q18 0 30 -13t12 -30t-12 -30.5t-30 -13.5q-19 0 -31 13.5t-12 30.5z" />
    <glyph glyph-name="emacron.sc" horiz-adv-x="492" 
d="M149 50h283v-50h-338v528h327v-50h-272v-180h256v-49h-256v-199zM389 627h-258v44h258v-44z" />
    <glyph glyph-name="ebreve.sc" horiz-adv-x="492" 
d="M149 50h283v-50h-338v528h327v-50h-272v-180h256v-49h-256v-199zM397 726q-5 -63 -43 -96.5t-98 -33.5q-58 0 -96.5 33.5t-43.5 96.5h37q8 -43 36.5 -64.5t66.5 -21.5q40 0 68.5 20.5t36.5 65.5h36z" />
    <glyph glyph-name="edotaccent.sc" horiz-adv-x="492" 
d="M149 50h283v-50h-338v528h327v-50h-272v-180h256v-49h-256v-199zM303 672q0 -18 -13 -29.5t-28 -11.5t-28 11.5t-13 29.5t13 29.5t28 11.5t28 -11.5t13 -29.5z" />
    <glyph glyph-name="eogonek.sc" horiz-adv-x="492" 
d="M459 -188q-17 -17 -40 -26t-47 -9q-35 0 -62 23t-27 61q0 20 8 39t21 36.5t29 33.5t32 30h-279v528h327v-50h-272v-180h256v-49h-256v-199h283v-50h-18q-40 -40 -61 -68t-21 -59q0 -24 15.5 -38.5t38.5 -14.5q33 0 57 24z" />
    <glyph glyph-name="gcircumflex.sc" horiz-adv-x="615" 
d="M485 433q-25 26 -64.5 41.5t-85.5 15.5q-50 0 -90 -17.5t-68.5 -48.5t-44 -72t-15.5 -87q0 -47 15 -88.5t43.5 -72t69.5 -48.5t92 -18q43 0 78 8.5t61 23.5v162h-123v49h179v-246q-39 -22 -87.5 -35t-108.5 -13q-62 0 -113 21t-88 58t-57.5 88t-20.5 111q0 61 21 111.5
t58 87t88 56.5t111 20t107.5 -17.5t80.5 -49.5zM475 585h-53l-86 115l-86 -115h-53l107 144h64z" />
    <glyph glyph-name="gbreve.sc" horiz-adv-x="615" 
d="M485 433q-25 26 -64.5 41.5t-85.5 15.5q-50 0 -90 -17.5t-68.5 -48.5t-44 -72t-15.5 -87q0 -47 15 -88.5t43.5 -72t69.5 -48.5t92 -18q43 0 78 8.5t61 23.5v162h-123v49h179v-246q-39 -22 -87.5 -35t-108.5 -13q-62 0 -113 21t-88 58t-57.5 88t-20.5 111q0 61 21 111.5
t58 87t88 56.5t111 20t107.5 -17.5t80.5 -49.5zM477 726q-5 -63 -43 -96.5t-98 -33.5q-58 0 -96.5 33.5t-43.5 96.5h37q8 -43 36.5 -64.5t66.5 -21.5q40 0 68.5 20.5t36.5 65.5h36z" />
    <glyph glyph-name="gdotaccent.sc" horiz-adv-x="615" 
d="M485 433q-25 26 -64.5 41.5t-85.5 15.5q-50 0 -90 -17.5t-68.5 -48.5t-44 -72t-15.5 -87q0 -47 15 -88.5t43.5 -72t69.5 -48.5t92 -18q43 0 78 8.5t61 23.5v162h-123v49h179v-246q-39 -22 -87.5 -35t-108.5 -13q-62 0 -113 21t-88 58t-57.5 88t-20.5 111q0 61 21 111.5
t58 87t88 56.5t111 20t107.5 -17.5t80.5 -49.5zM375 672q0 -18 -13 -29.5t-28 -11.5t-28 11.5t-13 29.5t13 29.5t28 11.5t28 -11.5t13 -29.5z" />
    <glyph glyph-name="gcommaaccent.sc" horiz-adv-x="615" 
d="M485 433q-25 26 -64.5 41.5t-85.5 15.5q-50 0 -90 -17.5t-68.5 -48.5t-44 -72t-15.5 -87q0 -47 15 -88.5t43.5 -72t69.5 -48.5t92 -18q43 0 78 8.5t61 23.5v162h-123v49h179v-246q-39 -22 -87.5 -35t-108.5 -13q-62 0 -113 21t-88 58t-57.5 88t-20.5 111q0 61 21 111.5
t58 87t88 56.5t111 20t107.5 -17.5t80.5 -49.5zM300 -230h-45l59 185h57z" />
    <glyph glyph-name="kgreenlandic.sc" horiz-adv-x="502" 
d="M149 292h2l246 236h78l-261 -242l276 -286h-81l-258 277h-2v-277h-55v528h55v-236z" />
    <glyph glyph-name="hcircumflex.sc" horiz-adv-x="606" 
d="M94 528h55v-231h307v231h56v-528h-56v249h-307v-249h-55v528zM441 585h-53l-86 115l-86 -115h-53l107 144h64z" />
    <glyph glyph-name="hbar.sc" horiz-adv-x="606" 
d="M456 297v83h-307v-83h307zM94 528h55v-115h307v115h56v-528h-56v249h-307v-249h-55v528z" />
    <glyph glyph-name="igrave.sc" horiz-adv-x="243" 
d="M149 0h-55v528h55v-528zM-23 729h72l101 -144h-47z" />
    <glyph glyph-name="iacute.sc" horiz-adv-x="243" 
d="M149 0h-55v528h55v-528zM142 585h-47l101 144h72z" />
    <glyph glyph-name="ibreve.sc" horiz-adv-x="243" 
d="M149 0h-55v528h55v-528zM262 726q-5 -63 -43 -96.5t-98 -33.5q-58 0 -96.5 33.5t-43.5 96.5h37q8 -43 36.5 -64.5t66.5 -21.5q40 0 68.5 20.5t36.5 65.5h36z" />
    <glyph glyph-name="icircumflex.sc" horiz-adv-x="243" 
d="M149 0h-55v528h55v-528zM259 585h-53l-86 115l-86 -115h-53l107 144h64z" />
    <glyph glyph-name="itilde.sc" horiz-adv-x="243" 
d="M149 0h-55v528h55v-528zM-28 605q6 38 25 66t57 28q16 0 34.5 -7t37 -16t35 -16t28.5 -7q21 0 31 14.5t15 34.5h35q-6 -38 -24.5 -65.5t-56.5 -27.5q-17 0 -35.5 7.5t-36.5 16t-34.5 16t-28.5 7.5q-21 0 -31.5 -15t-15.5 -36h-35z" />
    <glyph glyph-name="idieresis.sc" horiz-adv-x="243" 
d="M149 0h-55v528h55v-528zM168 672q0 17 12 30t30 13q19 0 31 -13t12 -30t-12 -30.5t-31 -13.5q-18 0 -30 13.5t-12 30.5zM-13 672q0 17 12 30t31 13q18 0 30 -13t12 -30t-12 -30.5t-30 -13.5q-19 0 -31 13.5t-12 30.5z" />
    <glyph glyph-name="imacron.sc" horiz-adv-x="243" 
d="M149 0h-55v528h55v-528zM251 627h-258v44h258v-44z" />
    <glyph glyph-name="idotaccent.sc" horiz-adv-x="243" 
d="M149 0h-55v528h55v-528zM164 651q0 -18 -13 -29.5t-28 -11.5t-28 11.5t-13 29.5t13 29.5t28 11.5t28 -11.5t13 -29.5z" />
    <glyph glyph-name="iogonek.sc" horiz-adv-x="243" 
d="M107 -223q-35 0 -61.5 23t-26.5 61q0 20 8 39t20.5 36.5t28.5 33t32 29.5h-7q-3 0 -5.5 0.5t-1.5 0.5v528h55v-528q-38 -39 -59.5 -67t-21.5 -60q0 -24 15.5 -38.5t38.5 -14.5q33 0 57 24l16 -32q-17 -17 -40 -26t-48 -9z" />
    <glyph glyph-name="jcircumflex.sc" horiz-adv-x="392" 
d="M73 108q9 -31 31 -50t56 -19q27 0 44.5 9.5t28 26t14.5 38.5t4 47v368h56v-372q0 -29 -6.5 -59t-23 -54.5t-44.5 -40t-70 -15.5q-58 0 -94 30t-48 75zM416 585h-53l-86 115l-86 -115h-53l107 144h64z" />
    <glyph glyph-name="kcommaaccent.sc" horiz-adv-x="502" 
d="M149 292h2l246 236h78l-261 -242l276 -286h-81l-258 277h-2v-277h-55v528h55v-236zM235 -229h-45l59 185h57z" />
    <glyph glyph-name="lacute.sc" horiz-adv-x="412" 
d="M149 50h244v-50h-299v528h55v-478zM146 585h-47l101 144h72z" />
    <glyph glyph-name="lcaron.sc" horiz-adv-x="412" 
d="M149 50h244v-50h-299v528h55v-478zM266 343h-45l59 185h57z" />
    <glyph glyph-name="lcommaaccent.sc" horiz-adv-x="412" 
d="M149 50h244v-50h-299v528h55v-478zM217 -232h-45l59 185h57z" />
    <glyph glyph-name="lslash.sc" horiz-adv-x="412" 
d="M149 347l123 103v-56l-123 -104v-240h244v-50h-299v244l-77 -64v57l77 64v227h55v-181z" />
    <glyph glyph-name="ldot.sc" horiz-adv-x="412" 
d="M149 50h244v-50h-299v528h55v-478zM316 312q0 -18 -13 -29.5t-28 -11.5t-28 11.5t-13 29.5t13 29.5t28 11.5t28 -11.5t13 -29.5z" />
    <glyph glyph-name="nacute.sc" horiz-adv-x="612" 
d="M461 80h2v448h56v-528h-71l-297 454h-2v-454h-55v528h72zM302 585h-47l101 144h72z" />
    <glyph glyph-name="ncaron.sc" horiz-adv-x="612" 
d="M461 80h2v448h56v-528h-71l-297 454h-2v-454h-55v528h72zM339 585h-64l-107 144h53l86 -115l86 115h53z" />
    <glyph glyph-name="ntilde.sc" horiz-adv-x="612" 
d="M461 80h2v448h56v-528h-71l-297 454h-2v-454h-55v528h72zM157 605q6 38 25 66t57 28q16 0 34.5 -7t37 -16t35 -16t28.5 -7q21 0 31 14.5t15 34.5h35q-6 -38 -24.5 -65.5t-56.5 -27.5q-17 0 -35.5 7.5t-36.5 16t-34.5 16t-28.5 7.5q-21 0 -31.5 -15t-15.5 -36h-35z" />
    <glyph glyph-name="ncommaaccent.sc" horiz-adv-x="612" 
d="M461 80h2v448h56v-528h-71l-297 454h-2v-454h-55v528h72zM275 -230h-45l59 185h57z" />
    <glyph glyph-name="ograve.sc" horiz-adv-x="668" 
d="M551 265q0 46 -15 87.5t-43.5 72.5t-69 49t-90.5 18t-90 -18t-68 -49t-43 -72.5t-15 -87.5q0 -47 15 -88t43.5 -72t68 -49t89.5 -18t90.5 18t69 49t43.5 72t15 88zM611 265q0 -60 -21 -111t-58 -88t-88 -58t-111 -21t-110.5 21t-87 58t-57.5 88t-21 111q0 61 21 111.5
t57.5 87t87 56.5t110.5 20t111 -20t88 -56.5t58 -87t21 -111.5zM201 729h72l101 -144h-47z" />
    <glyph glyph-name="oacute.sc" horiz-adv-x="668" 
d="M551 265q0 46 -15 87.5t-43.5 72.5t-69 49t-90.5 18t-90 -18t-68 -49t-43 -72.5t-15 -87.5q0 -47 15 -88t43.5 -72t68 -49t89.5 -18t90.5 18t69 49t43.5 72t15 88zM611 265q0 -60 -21 -111t-58 -88t-88 -58t-111 -21t-110.5 21t-87 58t-57.5 88t-21 111q0 61 21 111.5
t57.5 87t87 56.5t110.5 20t111 -20t88 -56.5t58 -87t21 -111.5zM339 585h-47l101 144h72z" />
    <glyph glyph-name="ocircumflex.sc" horiz-adv-x="668" 
d="M551 265q0 46 -15 87.5t-43.5 72.5t-69 49t-90.5 18t-90 -18t-68 -49t-43 -72.5t-15 -87.5q0 -47 15 -88t43.5 -72t68 -49t89.5 -18t90.5 18t69 49t43.5 72t15 88zM611 265q0 -60 -21 -111t-58 -88t-88 -58t-111 -21t-110.5 21t-87 58t-57.5 88t-21 111q0 61 21 111.5
t57.5 87t87 56.5t110.5 20t111 -20t88 -56.5t58 -87t21 -111.5zM472 585h-53l-86 115l-86 -115h-53l107 144h64z" />
    <glyph glyph-name="otilde.sc" horiz-adv-x="668" 
d="M551 265q0 46 -15 87.5t-43.5 72.5t-69 49t-90.5 18t-90 -18t-68 -49t-43 -72.5t-15 -87.5q0 -47 15 -88t43.5 -72t68 -49t89.5 -18t90.5 18t69 49t43.5 72t15 88zM611 265q0 -60 -21 -111t-58 -88t-88 -58t-111 -21t-110.5 21t-87 58t-57.5 88t-21 111q0 61 21 111.5
t57.5 87t87 56.5t110.5 20t111 -20t88 -56.5t58 -87t21 -111.5zM185 605q6 38 25 66t57 28q16 0 34.5 -7t37 -16t35 -16t28.5 -7q21 0 31 14.5t15 34.5h35q-6 -38 -24.5 -65.5t-56.5 -27.5q-17 0 -35.5 7.5t-36.5 16t-34.5 16t-28.5 7.5q-21 0 -31.5 -15t-15.5 -36h-35z" />
    <glyph glyph-name="odieresis.sc" horiz-adv-x="668" 
d="M551 265q0 46 -15 87.5t-43.5 72.5t-69 49t-90.5 18t-90 -18t-68 -49t-43 -72.5t-15 -87.5q0 -47 15 -88t43.5 -72t68 -49t89.5 -18t90.5 18t69 49t43.5 72t15 88zM611 265q0 -60 -21 -111t-58 -88t-88 -58t-111 -21t-110.5 21t-87 58t-57.5 88t-21 111q0 61 21 111.5
t57.5 87t87 56.5t110.5 20t111 -20t88 -56.5t58 -87t21 -111.5zM381 672q0 17 12 30t30 13q19 0 31 -13t12 -30t-12 -30.5t-31 -13.5q-18 0 -30 13.5t-12 30.5zM200 672q0 17 12 30t31 13q18 0 30 -13t12 -30t-12 -30.5t-30 -13.5q-19 0 -31 13.5t-12 30.5z" />
    <glyph glyph-name="omacron.sc" horiz-adv-x="668" 
d="M551 265q0 46 -15 87.5t-43.5 72.5t-69 49t-90.5 18t-90 -18t-68 -49t-43 -72.5t-15 -87.5q0 -47 15 -88t43.5 -72t68 -49t89.5 -18t90.5 18t69 49t43.5 72t15 88zM611 265q0 -60 -21 -111t-58 -88t-88 -58t-111 -21t-110.5 21t-87 58t-57.5 88t-21 111q0 61 21 111.5
t57.5 87t87 56.5t110.5 20t111 -20t88 -56.5t58 -87t21 -111.5zM463 627h-258v44h258v-44z" />
    <glyph glyph-name="obreve.sc" horiz-adv-x="668" 
d="M551 265q0 46 -15 87.5t-43.5 72.5t-69 49t-90.5 18t-90 -18t-68 -49t-43 -72.5t-15 -87.5q0 -47 15 -88t43.5 -72t68 -49t89.5 -18t90.5 18t69 49t43.5 72t15 88zM611 265q0 -60 -21 -111t-58 -88t-88 -58t-111 -21t-110.5 21t-87 58t-57.5 88t-21 111q0 61 21 111.5
t57.5 87t87 56.5t110.5 20t111 -20t88 -56.5t58 -87t21 -111.5zM474 726q-5 -63 -43 -96.5t-98 -33.5q-58 0 -96.5 33.5t-43.5 96.5h37q8 -43 36.5 -64.5t66.5 -21.5q40 0 68.5 20.5t36.5 65.5h36z" />
    <glyph glyph-name="ohungarumlaut.sc" horiz-adv-x="668" 
d="M551 265q0 46 -15 87.5t-43.5 72.5t-69 49t-90.5 18t-90 -18t-68 -49t-43 -72.5t-15 -87.5q0 -47 15 -88t43.5 -72t68 -49t89.5 -18t90.5 18t69 49t43.5 72t15 88zM611 265q0 -60 -21 -111t-58 -88t-88 -58t-111 -21t-110.5 21t-87 58t-57.5 88t-21 111q0 61 21 111.5
t57.5 87t87 56.5t110.5 20t111 -20t88 -56.5t58 -87t21 -111.5zM483 729h72l-126 -144h-47zM329 729h72l-126 -144h-47z" />
    <glyph glyph-name="oslash.sc" horiz-adv-x="668" 
d="M474 441q-27 23 -62.5 37t-78.5 14q-50 0 -90 -18t-68 -49t-43 -72.5t-15 -87.5q0 -85 44 -144zM333 37q50 0 90.5 18t69 49t43.5 72.5t15 88.5q0 87 -51 150l-315 -322q28 -26 65 -41t83 -15zM47 4l74 76q-30 36 -47 82t-17 103q0 61 21 111.5t57.5 87t87 56.5t110.5 20
q109 0 180 -59l67 69l26 -26l-66 -68q34 -37 52.5 -85t18.5 -106q0 -61 -21 -112t-58 -88t-88 -57.5t-111 -20.5q-112 0 -187 66l-73 -75z" />
    <glyph glyph-name="oe.sc" horiz-adv-x="778" 
d="M379 50v428h-42q-47 0 -86 -16.5t-68 -45t-45 -67.5t-16 -85q0 -47 16 -86t45 -67.5t68 -44.5t86 -16h42zM434 50h284v-50h-381q-57 0 -106.5 19t-87 53.5t-59 83t-21.5 108.5t21.5 108.5t59 83t87.5 53.5t106 19h370v-50h-273v-180h256v-49h-256v-199z" />
    <glyph glyph-name="racute.sc" horiz-adv-x="491" 
d="M149 292h97q60 0 96 21.5t36 72.5q0 27 -10.5 44.5t-28.5 28t-41.5 15t-49.5 4.5h-99v-186zM149 0h-55v528h159q36 0 69 -7.5t58 -24t40 -44t15 -66.5q0 -30 -10.5 -54t-29 -41.5t-43 -27.5t-52.5 -13l150 -250h-67l-142 243h-92v-243zM239 585h-47l101 144h72z" />
    <glyph glyph-name="rcaron.sc" horiz-adv-x="491" 
d="M149 292h97q60 0 96 21.5t36 72.5q0 27 -10.5 44.5t-28.5 28t-41.5 15t-49.5 4.5h-99v-186zM149 0h-55v528h159q36 0 69 -7.5t58 -24t40 -44t15 -66.5q0 -30 -10.5 -54t-29 -41.5t-43 -27.5t-52.5 -13l150 -250h-67l-142 243h-92v-243zM280 585h-64l-107 144h53l86 -115
l86 115h53z" />
    <glyph glyph-name="rcommaaccent.sc" horiz-adv-x="491" 
d="M149 292h97q60 0 96 21.5t36 72.5q0 27 -10.5 44.5t-28.5 28t-41.5 15t-49.5 4.5h-99v-186zM149 0h-55v528h159q36 0 69 -7.5t58 -24t40 -44t15 -66.5q0 -30 -10.5 -54t-29 -41.5t-43 -27.5t-52.5 -13l150 -250h-67l-142 243h-92v-243zM225 -230h-45l59 185h57z" />
    <glyph glyph-name="sacute.sc" horiz-adv-x="440" 
d="M338 441q-17 23 -45.5 37t-63.5 14q-20 0 -40.5 -5.5t-37 -17.5t-26.5 -30t-10 -43q0 -35 20 -55t50 -33t65 -23t65 -26.5t50 -43.5t20 -73q0 -39 -14.5 -68t-39 -48.5t-56 -29t-65.5 -9.5q-49 0 -93.5 19.5t-73.5 55.5l44 37q20 -29 53 -46t71 -17q21 0 42.5 6t38 19
t27 31.5t10.5 44.5q0 36 -20 56t-50 32.5t-65.5 23t-65.5 27t-50 44t-20 74.5q0 37 15 64.5t39.5 45.5t56 27t63.5 9q45 0 84 -16.5t62 -44.5zM217 585h-47l101 144h72z" />
    <glyph glyph-name="scircumflex.sc" horiz-adv-x="440" 
d="M338 441q-17 23 -45.5 37t-63.5 14q-20 0 -40.5 -5.5t-37 -17.5t-26.5 -30t-10 -43q0 -35 20 -55t50 -33t65 -23t65 -26.5t50 -43.5t20 -73q0 -39 -14.5 -68t-39 -48.5t-56 -29t-65.5 -9.5q-49 0 -93.5 19.5t-73.5 55.5l44 37q20 -29 53 -46t71 -17q21 0 42.5 6t38 19
t27 31.5t10.5 44.5q0 36 -20 56t-50 32.5t-65.5 23t-65.5 27t-50 44t-20 74.5q0 37 15 64.5t39.5 45.5t56 27t63.5 9q45 0 84 -16.5t62 -44.5zM370 585h-53l-86 115l-86 -115h-53l107 144h64z" />
    <glyph glyph-name="scaron.sc" horiz-adv-x="440" 
d="M338 441q-17 23 -45.5 37t-63.5 14q-20 0 -40.5 -5.5t-37 -17.5t-26.5 -30t-10 -43q0 -35 20 -55t50 -33t65 -23t65 -26.5t50 -43.5t20 -73q0 -39 -14.5 -68t-39 -48.5t-56 -29t-65.5 -9.5q-49 0 -93.5 19.5t-73.5 55.5l44 37q20 -29 53 -46t71 -17q21 0 42.5 6t38 19
t27 31.5t10.5 44.5q0 36 -20 56t-50 32.5t-65.5 23t-65.5 27t-50 44t-20 74.5q0 37 15 64.5t39.5 45.5t56 27t63.5 9q45 0 84 -16.5t62 -44.5zM262 585h-64l-107 144h53l86 -115l86 115h53z" />
    <glyph glyph-name="scedilla.sc" horiz-adv-x="440" 
d="M338 441q-17 23 -45.5 37t-63.5 14q-20 0 -40.5 -5.5t-37 -17.5t-26.5 -30t-10 -43q0 -35 20 -55t50 -33t65 -23t65 -26.5t50 -43.5t20 -73q0 -37 -12.5 -64.5t-34 -46.5t-50 -29.5t-59.5 -13.5l-42 -66q9 3 18.5 4t21.5 1q15 0 30 -4t27 -13t19.5 -22.5t7.5 -31.5
q0 -25 -11 -41.5t-28 -26t-37.5 -13.5t-39.5 -4q-20 0 -46 5t-47 15l13 31q17 -8 37 -12t39 -4q10 0 22.5 2.5t23.5 8t18.5 15t7.5 23.5q0 23 -17.5 33t-42.5 10q-11 0 -25.5 -2.5t-25.5 -7.5l-15 13l56 87q-45 3 -84.5 22t-65.5 52l44 37q20 -29 53 -46t71 -17q21 0 42.5 6
t38 19t27 31.5t10.5 44.5q0 36 -20 56t-50 32.5t-65.5 23t-65.5 27t-50 44t-20 74.5q0 37 15 64.5t39.5 45.5t56 27t63.5 9q45 0 84 -16.5t62 -44.5z" />
    <glyph glyph-name="scommaaccent.sc" horiz-adv-x="440" 
d="M338 441q-17 23 -45.5 37t-63.5 14q-20 0 -40.5 -5.5t-37 -17.5t-26.5 -30t-10 -43q0 -35 20 -55t50 -33t65 -23t65 -26.5t50 -43.5t20 -73q0 -39 -14.5 -68t-39 -48.5t-56 -29t-65.5 -9.5q-49 0 -93.5 19.5t-73.5 55.5l44 37q20 -29 53 -46t71 -17q21 0 42.5 6t38 19
t27 31.5t10.5 44.5q0 36 -20 56t-50 32.5t-65.5 23t-65.5 27t-50 44t-20 74.5q0 37 15 64.5t39.5 45.5t56 27t63.5 9q45 0 84 -16.5t62 -44.5zM181 -232h-45l59 185h57z" />
    <glyph glyph-name="tcaron.sc" horiz-adv-x="428" 
d="M241 0h-56v478h-172v50h402v-50h-174v-478zM245 585h-64l-107 144h53l86 -115l86 115h53z" />
    <glyph glyph-name="tcommaaccent.sc" horiz-adv-x="428" 
d="M241 0h-56v478h-172v50h402v-50h-174v-478zM184 -230h-45l59 185h57z" />
    <glyph glyph-name="tbar.sc" horiz-adv-x="428" 
d="M66 360h119v118h-172v50h402v-50h-174v-118h121v-37h-121v-323h-56v323h-119v37z" />
    <glyph glyph-name="thorn.sc" horiz-adv-x="480" 
d="M150 188h95q64 0 99 22.5t35 73.5q0 48 -33 69.5t-100 21.5h-96v-187zM94 528h56v-104h104q87 0 134 -33.5t47 -106.5q0 -72 -48.5 -108.5t-135.5 -36.5h-101v-139h-56v528z" />
    <glyph glyph-name="ugrave.sc" horiz-adv-x="574" 
d="M287 -13q-54 0 -92 18t-62.5 47t-35.5 67t-11 79v330h55v-326q0 -31 7.5 -60.5t24.5 -52t45 -36.5t69 -14t69 14t45 36.5t24.5 52t7.5 60.5v326h56v-330q0 -41 -11.5 -79t-36 -67t-62.5 -47t-92 -18zM149 729h72l101 -144h-47z" />
    <glyph glyph-name="uacute.sc" horiz-adv-x="574" 
d="M287 -13q-54 0 -92 18t-62.5 47t-35.5 67t-11 79v330h55v-326q0 -31 7.5 -60.5t24.5 -52t45 -36.5t69 -14t69 14t45 36.5t24.5 52t7.5 60.5v326h56v-330q0 -41 -11.5 -79t-36 -67t-62.5 -47t-92 -18zM300 585h-47l101 144h72z" />
    <glyph glyph-name="ucircumflex.sc" horiz-adv-x="574" 
d="M287 -13q-54 0 -92 18t-62.5 47t-35.5 67t-11 79v330h55v-326q0 -31 7.5 -60.5t24.5 -52t45 -36.5t69 -14t69 14t45 36.5t24.5 52t7.5 60.5v326h56v-330q0 -41 -11.5 -79t-36 -67t-62.5 -47t-92 -18zM427 585h-53l-86 115l-86 -115h-53l107 144h64z" />
    <glyph glyph-name="utilde.sc" horiz-adv-x="574" 
d="M287 -13q-54 0 -92 18t-62.5 47t-35.5 67t-11 79v330h55v-326q0 -31 7.5 -60.5t24.5 -52t45 -36.5t69 -14t69 14t45 36.5t24.5 52t7.5 60.5v326h56v-330q0 -41 -11.5 -79t-36 -67t-62.5 -47t-92 -18zM140 605q6 38 25 66t57 28q16 0 34.5 -7t37 -16t35 -16t28.5 -7
q21 0 31 14.5t15 34.5h35q-6 -38 -24.5 -65.5t-56.5 -27.5q-17 0 -35.5 7.5t-36.5 16t-34.5 16t-28.5 7.5q-21 0 -31.5 -15t-15.5 -36h-35z" />
    <glyph glyph-name="udieresis.sc" horiz-adv-x="574" 
d="M287 -13q-54 0 -92 18t-62.5 47t-35.5 67t-11 79v330h55v-326q0 -31 7.5 -60.5t24.5 -52t45 -36.5t69 -14t69 14t45 36.5t24.5 52t7.5 60.5v326h56v-330q0 -41 -11.5 -79t-36 -67t-62.5 -47t-92 -18zM337 672q0 17 12 30t30 13q19 0 31 -13t12 -30t-12 -30.5t-31 -13.5
q-18 0 -30 13.5t-12 30.5zM156 672q0 17 12 30t31 13q18 0 30 -13t12 -30t-12 -30.5t-30 -13.5q-19 0 -31 13.5t-12 30.5z" />
    <glyph glyph-name="umacron.sc" horiz-adv-x="574" 
d="M287 -13q-54 0 -92 18t-62.5 47t-35.5 67t-11 79v330h55v-326q0 -31 7.5 -60.5t24.5 -52t45 -36.5t69 -14t69 14t45 36.5t24.5 52t7.5 60.5v326h56v-330q0 -41 -11.5 -79t-36 -67t-62.5 -47t-92 -18zM418 627h-258v44h258v-44z" />
    <glyph glyph-name="ubreve.sc" horiz-adv-x="574" 
d="M287 -13q-54 0 -92 18t-62.5 47t-35.5 67t-11 79v330h55v-326q0 -31 7.5 -60.5t24.5 -52t45 -36.5t69 -14t69 14t45 36.5t24.5 52t7.5 60.5v326h56v-330q0 -41 -11.5 -79t-36 -67t-62.5 -47t-92 -18zM429 726q-5 -63 -43 -96.5t-98 -33.5q-58 0 -96.5 33.5t-43.5 96.5h37
q8 -43 36.5 -64.5t66.5 -21.5q40 0 68.5 20.5t36.5 65.5h36z" />
    <glyph glyph-name="uring.sc" horiz-adv-x="574" 
d="M287 -13q-54 0 -92 18t-62.5 47t-35.5 67t-11 79v330h55v-326q0 -31 7.5 -60.5t24.5 -52t45 -36.5t69 -14t69 14t45 36.5t24.5 52t7.5 60.5v326h56v-330q0 -41 -11.5 -79t-36 -67t-62.5 -47t-92 -18zM352 671q0 27 -19 46t-46 19t-46 -19t-19 -46t19 -46t46 -19t46 19
t19 46zM383 671q0 -20 -7.5 -37.5t-21 -30.5t-31 -20t-36.5 -7q-20 0 -37 7t-30.5 20t-21 30.5t-7.5 37.5t7.5 37.5t21 30t30.5 20t37 7.5q19 0 36.5 -7.5t31 -20t21 -30t7.5 -37.5z" />
    <glyph glyph-name="uhungarumlaut.sc" horiz-adv-x="574" 
d="M287 -13q-54 0 -92 18t-62.5 47t-35.5 67t-11 79v330h55v-326q0 -31 7.5 -60.5t24.5 -52t45 -36.5t69 -14t69 14t45 36.5t24.5 52t7.5 60.5v326h56v-330q0 -41 -11.5 -79t-36 -67t-62.5 -47t-92 -18zM433 729h72l-126 -144h-47zM279 729h72l-126 -144h-47z" />
    <glyph glyph-name="uogonek.sc" horiz-adv-x="574" 
d="M381 -188q-17 -17 -40 -26t-48 -9q-35 0 -61.5 23t-26.5 61q0 37 23 68.5t52 57.5q-52 1 -89 19.5t-60 47.5t-34 66.5t-11 77.5v330h55v-326q0 -31 7.5 -60.5t24.5 -52t45 -36.5t69 -14t69 14t45 36.5t24.5 52t7.5 60.5v326h56v-330q0 -37 -9.5 -71.5t-29 -62.5
t-50.5 -47.5t-74 -25.5q-35 -36 -53.5 -62.5t-18.5 -55.5q0 -24 15.5 -38.5t38.5 -14.5q33 0 57 24z" />
    <glyph glyph-name="wacute.sc" horiz-adv-x="759" 
d="M213 77h2l132 451h65l132 -451h2l128 451h60l-156 -528h-63l-135 452l-137 -452h-62l-155 528h59zM402 585h-47l101 144h72z" />
    <glyph glyph-name="wcircumflex.sc" horiz-adv-x="759" 
d="M213 77h2l132 451h65l132 -451h2l128 451h60l-156 -528h-63l-135 452l-137 -452h-62l-155 528h59zM519 585h-53l-86 115l-86 -115h-53l107 144h64z" />
    <glyph glyph-name="wdieresis.sc" horiz-adv-x="759" 
d="M213 77h2l132 451h65l132 -451h2l128 451h60l-156 -528h-63l-135 452l-137 -452h-62l-155 528h59zM427 672q0 17 12 30t30 13q19 0 31 -13t12 -30t-12 -30.5t-31 -13.5q-18 0 -30 13.5t-12 30.5zM246 672q0 17 12 30t31 13q18 0 30 -13t12 -30t-12 -30.5t-30 -13.5
q-19 0 -31 13.5t-12 30.5z" />
    <glyph glyph-name="wgrave.sc" horiz-adv-x="759" 
d="M213 77h2l132 451h65l132 -451h2l128 451h60l-156 -528h-63l-135 452l-137 -452h-62l-155 528h59zM231 729h72l101 -144h-47z" />
    <glyph glyph-name="yacute.sc" horiz-adv-x="450" 
d="M252 0h-55v229l-193 299h67l154 -253l155 253h66l-194 -299v-229zM225 585h-47l101 144h72z" />
    <glyph glyph-name="ycircumflex.sc" horiz-adv-x="450" 
d="M252 0h-55v229l-193 299h67l154 -253l155 253h66l-194 -299v-229zM364 585h-53l-86 115l-86 -115h-53l107 144h64z" />
    <glyph glyph-name="ydieresis.sc" horiz-adv-x="450" 
d="M252 0h-55v229l-193 299h67l154 -253l155 253h66l-194 -299v-229zM274 672q0 17 12 30t30 13q19 0 31 -13t12 -30t-12 -30.5t-31 -13.5q-18 0 -30 13.5t-12 30.5zM93 672q0 17 12 30t31 13q18 0 30 -13t12 -30t-12 -30.5t-30 -13.5q-19 0 -31 13.5t-12 30.5z" />
    <glyph glyph-name="ygrave.sc" horiz-adv-x="450" 
d="M252 0h-55v229l-193 299h67l154 -253l155 253h66l-194 -299v-229zM98 729h72l101 -144h-47z" />
    <glyph glyph-name="zacute.sc" horiz-adv-x="484" 
d="M429 478l-312 -428h317v-50h-384v50l311 428h-303v50h371v-50zM224 585h-47l101 144h72z" />
    <glyph glyph-name="zcaron.sc" horiz-adv-x="484" 
d="M429 478l-312 -428h317v-50h-384v50l311 428h-303v50h371v-50zM279 585h-64l-107 144h53l86 -115l86 115h53z" />
    <glyph glyph-name="zdotaccent.sc" horiz-adv-x="484" 
d="M429 478l-312 -428h317v-50h-384v50l311 428h-303v50h371v-50zM283 672q0 -18 -13 -29.5t-28 -11.5t-28 11.5t-13 29.5t13 29.5t28 11.5t28 -11.5t13 -29.5z" />
    <glyph glyph-name="ij.sc" horiz-adv-x="630" 
d="M149 0h-55v528h55v-528zM311 108q9 -31 31 -50t56 -19q27 0 44.5 9.5t28 26t14.5 38.5t4 47v368h56v-372q0 -29 -6.5 -59t-23 -54.5t-44.5 -40t-70 -15.5q-58 0 -94 30t-48 75z" />
    <glyph glyph-name="germandbls.sc" horiz-adv-x="893" 
d="M791 441q-17 23 -45.5 37t-63.5 14q-21 0 -41.5 -5.5t-37 -17.5t-26.5 -30t-10 -43q0 -35 20 -54.5t50 -32.5t65.5 -23t65.5 -26.5t50 -44t20 -73.5q0 -39 -14.5 -68t-39 -48.5t-56 -29t-65.5 -9.5q-49 0 -93.5 19.5t-73.5 55.5l44 37q20 -29 53 -46t71 -17q21 0 42.5 6
t38 19t27 31.5t10.5 44.5q0 36 -20 56t-50 32.5t-65.5 23t-65.5 27t-50 44t-20 74.5q0 37 15 64.5t39.5 45.5t56 27t63.5 9q45 0 84 -16.5t62 -44.5zM345 441q-18 23 -46 37t-63 14q-21 0 -41.5 -5.5t-37 -17.5t-26.5 -30t-10 -43q0 -35 20 -54.5t50 -32.5t65.5 -23
t65.5 -26.5t50 -44t20 -73.5q0 -39 -14.5 -68t-39 -48.5t-56 -29t-65.5 -9.5q-50 0 -94.5 19.5t-72.5 55.5l44 37q20 -29 52.5 -46t70.5 -17q22 0 43 6t37.5 19t27 31.5t10.5 44.5q0 36 -20 56t-50 32.5t-65 23t-65 27t-50 44t-20 74.5q0 37 15 64.5t39.5 45.5t56 27t63.5 9
q45 0 84 -16.5t62 -44.5z" />
    <glyph glyph-name="eng.sc" horiz-adv-x="612" 
d="M94 528h72l295 -433h2v433h56v-622q0 -30 -5.5 -57t-20 -46.5t-39 -31t-62.5 -11.5q-10 0 -23 1t-24 5l8 45q22 -5 38 -5q24 0 38.5 8.5t22 23t10 34t2.5 41.5v78l-313 463h-2v-454h-55v528z" />
    <glyph glyph-name="grave.sc" horiz-adv-x="240" 
d="M-1 729h72l101 -144h-47z" />
    <glyph glyph-name="acute.sc" horiz-adv-x="240" 
d="M115 585h-47l101 144h72z" />
    <glyph glyph-name="circumflex.sc" horiz-adv-x="240" 
d="M259 585h-53l-86 115l-86 -115h-53l107 144h64z" />
    <glyph glyph-name="caron.sc" horiz-adv-x="240" 
d="M152 585h-64l-107 144h53l86 -115l86 115h53z" />
    <glyph glyph-name="tilde.sc" horiz-adv-x="240" 
d="M-29 605q6 38 25 66t57 28q16 0 34.5 -7t37 -16t35 -16t28.5 -7q21 0 31 14.5t15 34.5h35q-6 -38 -24.5 -65.5t-56.5 -27.5q-17 0 -35.5 7.5t-36.5 16t-34.5 16t-28.5 7.5q-21 0 -31.5 -15t-15.5 -36h-35z" />
    <glyph glyph-name="dieresis.sc" horiz-adv-x="240" 
d="M168 672q0 17 12 30t30 13q19 0 31 -13t12 -30t-12 -30.5t-31 -13.5q-18 0 -30 13.5t-12 30.5zM-13 672q0 17 12 30t31 13q18 0 30 -13t12 -30t-12 -30.5t-30 -13.5q-19 0 -31 13.5t-12 30.5z" />
    <glyph glyph-name="macron.sc" horiz-adv-x="240" 
d="M249 627h-258v44h258v-44z" />
    <glyph glyph-name="breve.sc" horiz-adv-x="240" 
d="M260 726q-5 -63 -43 -96.5t-98 -33.5q-58 0 -96.5 33.5t-43.5 96.5h37q8 -43 36.5 -64.5t66.5 -21.5q40 0 68.5 20.5t36.5 65.5h36z" />
    <glyph glyph-name="ring.sc" horiz-adv-x="240" 
d="M185 671q0 27 -19 46t-46 19t-46 -19t-19 -46t19 -46t46 -19t46 19t19 46zM216 671q0 -20 -7.5 -37.5t-21 -30.5t-31 -20t-36.5 -7q-20 0 -37 7t-30.5 20t-21 30.5t-7.5 37.5t7.5 37.5t21 30t30.5 20t37 7.5q19 0 36.5 -7.5t31 -20t21 -30t7.5 -37.5z" />
    <glyph glyph-name="hungarumlaut.sc" horiz-adv-x="240" 
d="M225 729h72l-126 -144h-47zM71 729h72l-126 -144h-47z" />
    <glyph glyph-name="dotaccent.sc" horiz-adv-x="240" 
d="M161 672q0 -18 -13 -29.5t-28 -11.5t-28 11.5t-13 29.5t13 29.5t28 11.5t28 -11.5t13 -29.5z" />
    <glyph glyph-name="exclamdown.sc" horiz-adv-x="275" 
d="M182 489q0 -18 -12 -31.5t-32 -13.5t-32 13.5t-12 31.5t12 31.5t32 13.5t32 -13.5t12 -31.5zM110 0v376h55v-376h-55z" />
    <glyph glyph-name="questiondown.sc" horiz-adv-x="353" 
d="M177 454q-19 0 -31 13.5t-12 30.5q0 18 11.5 31t31.5 13t31.5 -13t11.5 -31q0 -17 -11.5 -30.5t-31.5 -13.5zM172 -13q-33 0 -59 10.5t-43 28.5t-26 42t-9 52q0 44 16.5 72t49.5 56q34 28 44 51t10 55v26h54v-38q0 -18 -3.5 -32t-12 -28.5t-23 -31t-35.5 -37.5
q-23 -23 -33.5 -41t-10.5 -49q0 -35 22 -61t62 -26q32 0 56 20.5t33 65.5l53 -10q-11 -60 -48 -92.5t-97 -32.5z" />
    <glyph glyph-name="Euro.sc" horiz-adv-x="478" 
d="M401 465q-25 14 -48.5 19.5t-49.5 5.5q-57 0 -100.5 -37.5t-59.5 -110.5h223l-14 -42h-214q-2 -13 -3 -25t-1 -20q0 -17 3 -35h194l-14 -43h-173q5 -29 18 -55t32.5 -45t45 -30t54.5 -11t56 7.5t53 26.5l22 -43q-58 -40 -132 -40q-45 0 -81 16t-62.5 42.5t-42.5 60.5
t-22 71h-59l16 43h37q-1 5 -1.5 14.5t-0.5 16.5q0 11 1 25.5t2 23.5h-53l15 42h44q19 96 78 147t140 51q64 0 116 -29z" />
    <glyph glyph-name="cent.sc" horiz-adv-x="478" 
d="M108 233q0 -76 41 -129.5t111 -65.5v390q-35 -6 -63.5 -23.5t-48 -43t-30 -58.5t-10.5 -70zM260 -72v61q-48 5 -86.5 25t-65.5 52.5t-41.5 74.5t-14.5 92q0 49 15 91t42 74.5t65.5 52.5t85.5 25v64h44v-62q48 -2 87.5 -20t67.5 -53l-36 -33q-20 25 -52 41t-67 18v-395
q38 2 69 16.5t55 39.5l34 -31q-29 -33 -68 -52.5t-90 -21.5v-59h-44z" />
    <glyph glyph-name="sterling.sc" horiz-adv-x="478" 
d="M324 249h-120v-199h185v-50h-313v50h72v199h-66v46h66v74q0 79 41 125t116 46q63 0 107 -39l-36 -39q-18 18 -36 24.5t-37 6.5q-48 0 -73.5 -33t-25.5 -96v-69h120v-46z" />
    <glyph glyph-name="florin.sc" horiz-adv-x="478" 
d="M355 275h-93l-39 -235q-11 -63 -39 -94.5t-80 -31.5q-18 0 -38.5 6t-32.5 15l21 42q10 -8 24 -12t26 -4q23 0 40.5 18.5t25.5 66.5l37 229h-83v42h87l20 113q9 54 38 81.5t74 27.5q22 0 43.5 -7t36.5 -19l-29 -38q-10 8 -23.5 13t-24.5 5q-26 0 -41.5 -18.5t-20.5 -50.5
l-18 -107h89v-42z" />
    <glyph glyph-name="yen.sc" horiz-adv-x="478" 
d="M214 166v74h-123v42h112l-171 246h63l146 -220l145 220h60l-169 -246h113v-42h-123v-74h123v-42h-123v-124h-53v124h-123v42h123z" />
    <glyph glyph-name="perthousand.sc" horiz-adv-x="970" 
d="M184 -30l-38 22l338 564l38 -22zM879 117q0 36 -25 60t-59 24t-59 -24t-25 -60q0 -37 25 -60.5t59 -23.5t59 23.5t25 60.5zM925 117q0 -27 -10 -51t-27.5 -41.5t-41.5 -27.5t-51 -10t-51 10t-41.5 27.5t-27.5 41.5t-10 51t10 50.5t27.5 41t41.5 27.5t51 10t51 -10
t41.5 -27.5t27.5 -41t10 -50.5zM573 117q0 36 -24.5 60t-59.5 24q-34 0 -58.5 -24t-24.5 -60q0 -37 24.5 -60.5t58.5 -23.5q35 0 59.5 23.5t24.5 60.5zM619 117q0 -27 -10 -51t-27.5 -41.5t-41.5 -27.5t-51 -10t-50.5 10t-41 27.5t-27.5 41.5t-10 51t10 50.5t27.5 41
t41 27.5t50.5 10t51 -10t41.5 -27.5t27.5 -41t10 -50.5zM264 411q0 18 -6.5 33t-18 26.5t-27 18t-32.5 6.5t-32 -6.5t-26.5 -18t-18 -26.5t-6.5 -33q0 -37 24.5 -60.5t58.5 -23.5q35 0 59.5 23.5t24.5 60.5zM310 411q0 -27 -10 -51t-27.5 -41.5t-41.5 -27.5t-51 -10
t-50.5 10t-41 27.5t-27.5 41.5t-10 51t10 50.5t27.5 41t41 27.5t50.5 10t51 -10t41.5 -27.5t27.5 -41t10 -50.5z" />
    <glyph glyph-name="zero.onum" horiz-adv-x="684" 
d="M560 265q0 48 -15 89t-43.5 71.5t-69 48t-91.5 17.5q-50 0 -90.5 -17.5t-68.5 -48t-43 -71.5t-15 -89t15 -89t43.5 -72t68.5 -48.5t90 -17.5q51 0 91.5 17.5t69 48.5t43.5 72t15 89zM621 265q0 -61 -21 -112t-58 -88t-88.5 -57.5t-112.5 -20.5q-60 0 -111 20.5t-88 57.5
t-58 88t-21 112q0 62 21 113t58 87.5t88 56.5t111 20q61 0 112.5 -20t88.5 -56.5t58 -87.5t21 -113z" />
    <glyph glyph-name="one.onum" horiz-adv-x="375" 
d="M181 0v456l-102 -86l-33 40l141 118h50v-528h-56z" />
    <glyph glyph-name="two.onum" horiz-adv-x="514" 
d="M56 0v53l99 70q55 40 97.5 71.5t71 60.5t43 57.5t14.5 62.5q0 54 -36 85.5t-96 31.5q-48 0 -86 -23.5t-60 -71.5l-44 27q28 57 77.5 87.5t113.5 30.5q85 0 136.5 -42.5t51.5 -123.5q0 -39 -15.5 -72.5t-44.5 -64.5t-70 -62.5t-91 -66.5l-81 -57v-3h313v-50h-393z" />
    <glyph glyph-name="three.onum" horiz-adv-x="525" 
d="M182 -170q-26 0 -53 2t-50 7l9 52q21 -6 46 -8.5t47 -2.5q45 0 85 10.5t69 33t46 57.5t17 83q0 78 -50 118.5t-132 40.5q-50 0 -105 -15l-16 43q31 24 69.5 54.5t76.5 61.5t71.5 59.5t54.5 48.5v4h-294v49h363v-58q-22 -20 -52 -46t-63.5 -54t-67.5 -55t-63 -49v-4
q14 2 27 3.5t24 1.5q43 0 81.5 -13.5t68 -39.5t47 -63t17.5 -83q0 -60 -21.5 -104.5t-58.5 -74.5t-87 -44.5t-106 -14.5z" />
    <glyph glyph-name="four.onum" horiz-adv-x="563" 
d="M417 9v-179h-55v179h-316v52l285 481h61l-288 -483h258v266h55v-266h118v-50h-118z" />
    <glyph glyph-name="five.onum" horiz-adv-x="519" 
d="M443 476h-275l-26 -218q17 5 41.5 8.5t44.5 3.5q43 0 83 -13t70.5 -38.5t49 -63.5t18.5 -89q0 -60 -21 -104.5t-57 -73.5t-84.5 -43.5t-103.5 -14.5q-27 0 -57.5 2.5t-53.5 7.5l9 48q42 -9 97 -9q99 0 156.5 46t57.5 139q0 42 -15.5 72t-41 49.5t-58 28.5t-66.5 9
q-32 0 -67 -6.5t-60 -16.5l37 328h322v-52z" />
    <glyph glyph-name="six.onum" horiz-adv-x="578" 
d="M291 381q-36 0 -67.5 -13t-54.5 -36t-36 -55t-13 -70q0 -37 12.5 -68.5t34.5 -55t53 -36.5t68 -13t68 13t53.5 36t35 54.5t12.5 69.5q0 37 -11.5 69t-33.5 55.5t-52.5 36.5t-68.5 13zM515 209q0 -50 -17 -91t-47.5 -71t-72 -46.5t-90.5 -16.5q-50 0 -91.5 16.5
t-71.5 46.5t-46.5 72.5t-16.5 94.5q0 66 25.5 132t68.5 130t99 123.5t118 112.5l45 -32q-39 -32 -78 -70t-74 -78.5t-63.5 -82t-45.5 -80.5l3 -2q53 61 143 61q46 0 85 -16.5t67 -46t44 -69.5t16 -87z" />
    <glyph glyph-name="seven.onum" horiz-adv-x="514" 
d="M464 475q-40 -81 -82 -170t-81.5 -176t-74 -167.5t-60.5 -144.5l-58 15q18 43 41.5 96t50 111.5t55 119t55.5 118t52 108.5t45 91h-355v52h412v-53z" />
    <glyph glyph-name="eight.onum" horiz-adv-x="571" 
d="M449 193q0 35 -12.5 64.5t-34.5 50.5t-52 33t-64 12q-35 0 -65 -12t-52 -33t-34.5 -50.5t-12.5 -64.5t11.5 -64t33 -50t51.5 -33t68 -12q36 0 66 12t51.5 33t33.5 50t12 64zM286 675q-30 0 -55.5 -10t-44 -28t-29.5 -43t-11 -55q0 -28 10.5 -53t29 -44t44 -30t56.5 -11
q30 0 55.5 11t44.5 30t29.5 44t10.5 53q0 30 -11 55t-30 43t-44.5 28t-54.5 10zM508 190q0 -48 -17.5 -86t-47.5 -64.5t-70.5 -40.5t-86.5 -14q-47 0 -87.5 14t-70.5 40.5t-47.5 64.5t-17.5 86q0 66 38 117t104 69v2q-57 20 -86.5 64.5t-29.5 98.5q0 41 15 74.5t41.5 57.5
t62.5 37t78 13q40 0 76 -13t62.5 -37t42 -57.5t15.5 -74.5q0 -53 -30 -98t-86 -65v-2q69 -19 105.5 -69.5t36.5 -116.5z" />
    <glyph glyph-name="nine.onum" horiz-adv-x="578" 
d="M289 493q-37 0 -68 -13t-53 -36t-34.5 -55t-12.5 -70q0 -37 11.5 -69t33.5 -55t52 -36.5t68 -13.5q36 0 67.5 13t55 36t36.5 55.5t13 70.5q0 37 -12.5 68.5t-34.5 54.5t-53.5 36.5t-68.5 13.5zM516 313q0 -67 -26.5 -134.5t-70 -131.5t-99.5 -123t-115 -108l-45 32
q39 31 77.5 68t73 77t63 81t46.5 80l-2 2q-55 -58 -144 -58q-46 0 -84.5 16.5t-66.5 45.5t-44 69.5t-16 87.5q0 49 17 90.5t47.5 71.5t72 46.5t90.5 16.5t90.5 -16.5t71.5 -46.5t47 -72t17 -94z" />
    <glyph glyph-name="ordfeminine.sc" horiz-adv-x="357" 
d="M116 531h125l-62 147zM75 431h-48l129 290h48l126 -290h-48l-29 69h-149z" />
    <glyph glyph-name="fi.sc" horiz-adv-x="711" 
d="M149 0h-55v528h319v-50h-264v-184h247v-49h-247v-245zM617 0h-55v528h55v-528z" />
    <glyph glyph-name="fl.sc" horiz-adv-x="880" 
d="M149 0h-55v528h319v-50h-264v-184h247v-49h-247v-245zM617 50h244v-50h-299v528h55v-478z" />
    </font>
</defs>
</svg>
