<?xml version="1.0" standalone="no"?>
<!DOCTYPE svg PUBLIC "-//W3C//DTD SVG 1.1//EN" "http://www.w3.org/Graphics/SVG/1.1/DTD/svg11.dtd" >
<svg xmlns="http://www.w3.org/2000/svg" xmlns:xlink="http://www.w3.org/1999/xlink" version="1.1">
<metadata>
Created by FontForge 20170731 at Wed Jun  7 16:29:02 2017
 By Aleksey,,,
Copyright (c) 2004 - 2017 Monotype GmbH. All rights reserved.
</metadata>
<defs>
<font id="AvenirNextLTPro-Bold" horiz-adv-x="300" >
  <font-face 
    font-family="AvenirNext LT Pro Medium"
    font-weight="800"
    font-stretch="normal"
    units-per-em="1000"
    panose-1="2 11 8 4 2 2 2 2 2 4"
    ascent="800"
    descent="-200"
    x-height="498"
    cap-height="708"
    bbox="-194 -250 1210 963"
    underline-thickness="50"
    underline-position="-150"
    unicode-range="U+000D-FB02"
  />
<missing-glyph horiz-adv-x="512" 
d="M512 718v-718h-512v718h512zM462 50v617h-412v-617h412zM225 234l-2 17q0 56 13 81q7 13 18 27.5t28 31.5q16 15 26 26.5t15 21t7 18t2 17.5q0 36 -22.5 60.5t-53.5 24.5t-53.5 -22t-28.5 -73l-50 8q7 72 44 104.5t91 32.5t89 -35.5t35 -95.5q0 -32 -12.5 -58.5
t-50.5 -61.5q-37 -33 -43 -52q-6 -20 -6 -72h-46zM222 117v67h56v-67h-56z" />
    <glyph glyph-name="fi" unicode="fi" horiz-adv-x="665" 
d="M373 635q-9 3 -21 5t-24 2q-23 0 -37 -8t-22 -21.5t-11 -30.5t-3 -34v-50h111v-123h-111v-375h-164v375h-91v123h91v48q0 46 10 87.5t34.5 73t66 50t103.5 18.5q21 0 41.5 -2.5t37.5 -7.5zM434 0v498h164v-498h-164zM610 657q0 -19 -7.5 -35.5t-20 -28.5t-30 -19
t-36.5 -7q-40 0 -67 26.5t-27 63.5q0 18 7 34.5t20 28.5t30 19.5t37 7.5q19 0 36.5 -7t30 -19t20 -28.5t7.5 -35.5z" />
    <glyph glyph-name="fl" unicode="fl" horiz-adv-x="666" 
d="M373 635q-9 3 -21 5t-24 2q-23 0 -37 -8t-22 -21.5t-11 -30.5t-3 -34v-50h111v-123h-111v-375h-164v375h-91v123h91v48q0 46 10 87.5t34.5 73t66 50t103.5 18.5q21 0 41.5 -2.5t37.5 -7.5zM434 0v756h166v-756h-166z" />
    <glyph glyph-name=".notdef" horiz-adv-x="512" 
d="M512 718v-718h-512v718h512zM462 50v617h-412v-617h412zM225 234l-2 17q0 56 13 81q7 13 18 27.5t28 31.5q16 15 26 26.5t15 21t7 18t2 17.5q0 36 -22.5 60.5t-53.5 24.5t-53.5 -22t-28.5 -73l-50 8q7 72 44 104.5t91 32.5t89 -35.5t35 -95.5q0 -32 -12.5 -58.5
t-50.5 -61.5q-37 -33 -43 -52q-6 -20 -6 -72h-46zM222 117v67h56v-67h-56z" />
    <glyph glyph-name=".null" horiz-adv-x="0" 
 />
    <glyph glyph-name="nonmarkingreturn" unicode="&#xd;" horiz-adv-x="250" 
 />
    <glyph glyph-name="NULL" horiz-adv-x="0" 
 />
    <glyph glyph-name="NULL" horiz-adv-x="0" 
 />
    <glyph glyph-name="space" unicode=" " horiz-adv-x="250" 
 />
    <glyph glyph-name="exclam" unicode="!" horiz-adv-x="357" 
d="M276 85q0 -20 -7.5 -37.5t-21 -30t-31.5 -20t-38 -7.5t-37.5 7t-30.5 20t-21 30t-8 37q0 19 7.5 36.5t20.5 30.5t31 20.5t38 7.5t38 -7.5t31.5 -20t21 -30t7.5 -36.5zM94 237v471h168v-471h-168z" />
    <glyph glyph-name="quotedbl" unicode="&#x22;" horiz-adv-x="498" 
d="M86 437v271h131v-271h-131zM281 437v271h130v-271h-130z" />
    <glyph glyph-name="numbersign" unicode="#" horiz-adv-x="603" 
d="M269 404l-13 -100h78l14 100h-79zM458 404l-14 -100h85v-104h-98l-30 -200h-110l29 200h-79l-29 -200h-110l29 200h-85v104h99l15 100h-85v104h98l29 200h111l-29 -200h78l29 200h110l-28 -200h84v-104h-99z" />
    <glyph glyph-name="dollar" unicode="$" horiz-adv-x="646" 
d="M356 122q34 2 53.5 22.5t19.5 55.5t-20.5 52.5t-52.5 27.5v-158zM287 589q-27 -3 -48.5 -20.5t-21.5 -50.5q0 -32 19 -49t51 -25v145zM360 718q57 -2 117 -20t107 -56q-49 -56 -97 -109q-25 25 -60 39t-67 15v-160q39 -12 79 -27t73 -40t54 -61t21 -90q0 -55 -19.5 -95.5
t-52 -67.5t-74 -41t-85.5 -15v-73h-74v73q-65 2 -131 24.5t-116 67.5q26 27 52.5 54.5t52.5 55.5q13 -15 31 -27.5t37 -21.5t38 -14.5t36 -5.5v175q-43 12 -82.5 27t-69.5 39t-48 58.5t-18 84.5q0 49 20 87.5t52 65t72 41t79 16.5v69h73v-68z" />
    <glyph glyph-name="percent" unicode="%" horiz-adv-x="911" 
d="M296 -34l-89 44l413 730l93 -45zM297 531q0 32 -23 55t-55 23t-55 -23t-23 -55t23 -54.5t55 -22.5t55 22.5t23 54.5zM409 531q0 -39 -15 -73.5t-40.5 -60t-60.5 -40.5t-74 -15t-74 15t-60.5 40.5t-40.5 60t-15 73.5q0 40 15 74.5t40.5 60t60.5 40t74 14.5t74 -14.5
t60.5 -40t40.5 -60t15 -74.5zM777 177q0 16 -6.5 30.5t-17 25t-24.5 16.5t-30 6q-32 0 -55 -23t-23 -55t23 -54.5t55 -22.5q16 0 30 6t24.5 16.5t17 24.5t6.5 30zM889 177q0 -39 -15 -73.5t-40.5 -60t-60.5 -40.5t-74 -15t-74 15t-60.5 40.5t-40.5 60t-15 73.5t15 73.5
t40.5 60t60.5 40.5t74 15t74 -15t60.5 -40.5t40.5 -60t15 -73.5z" />
    <glyph glyph-name="ampersand" unicode="&#x26;" horiz-adv-x="781" 
d="M284 299q-30 -12 -52.5 -33.5t-22.5 -61.5q0 -21 8.5 -37.5t22 -28t30.5 -17.5t35 -6q33 0 59 14t45 40zM410 542q0 27 -18 46t-49 19q-29 0 -48.5 -18.5t-19.5 -46.5q0 -25 13.5 -48t39.5 -44q34 14 58 37t24 55zM573 0l-67 69q-34 -36 -83.5 -59.5t-123.5 -23.5
q-48 0 -94 12.5t-81.5 39t-57 66t-21.5 93.5q0 37 12 68t32.5 55t47.5 42t56 31q-33 32 -53 70t-20 84q0 48 20 82t51.5 56t71 32t78.5 10q40 0 79 -10.5t69.5 -32.5t49 -56t18.5 -81q0 -34 -11 -61.5t-30.5 -50t-45.5 -40.5t-55 -33l89 -91l71 109h182l-153 -205l176 -175
h-207z" />
    <glyph glyph-name="quotesingle" unicode="'" horiz-adv-x="303" 
d="M86 437v271h130v-271h-130z" />
    <glyph glyph-name="parenleft" unicode="(" horiz-adv-x="342" 
d="M176 -166q-71 98 -109 214.5t-38 239.5t38 239.5t109 214.5l112 -55q-63 -87 -96.5 -188.5t-33.5 -210.5t33.5 -210.5t96.5 -188.5z" />
    <glyph glyph-name="parenright" unicode=")" horiz-adv-x="342" 
d="M313 288q0 -123 -38 -239.5t-109 -214.5l-112 55q63 87 96.5 188.5t33.5 210.5t-33.5 210.5t-96.5 188.5l112 55q71 -98 109 -214.5t38 -239.5z" />
    <glyph glyph-name="asterisk" unicode="*" horiz-adv-x="489" 
d="M333 478l81 -107l-90 -63l-81 109l-79 -105l-88 63l81 104l-129 43l35 100l127 -44v130h110v-130l127 40l34 -100z" />
    <glyph glyph-name="plus" unicode="+" horiz-adv-x="666" 
d="M399 240v-209h-130v209h-213v126h212v209h130v-209h213v-126h-212z" />
    <glyph glyph-name="comma" unicode="," 
d="M155 -124h-135l75 284h157z" />
    <glyph glyph-name="hyphen" unicode="-" horiz-adv-x="326" 
d="M36 197v130h254v-130h-254z" />
    <glyph glyph-name="period" unicode="." 
d="M251 88q0 -42 -29.5 -70t-70.5 -28q-21 0 -39.5 7.5t-32.5 20.5t-22 30.5t-8 38.5q0 20 8 38t22 31.5t32.5 21.5t39.5 8q41 0 70.5 -28t29.5 -70z" />
    <glyph glyph-name="slash" unicode="/" horiz-adv-x="415" 
d="M106 -52l-113 37l309 777l113 -39z" />
    <glyph glyph-name="zero" unicode="0" horiz-adv-x="646" 
d="M428 356q0 33 -4 73t-15 74.5t-31.5 58t-53.5 23.5t-54 -23.5t-32.5 -58t-15.5 -74.5t-4 -73q0 -34 4 -74.5t15.5 -75t32.5 -58t54 -23.5t53.5 23.5t31.5 58t15 75t4 74.5zM600 356q0 -75 -15 -143t-48 -119.5t-85.5 -82t-127.5 -30.5t-128 30.5t-86.5 82t-48.5 119.5
t-15 143t15 142.5t48.5 118t86.5 80.5t128 30t127.5 -30t85.5 -80.5t48 -118t15 -142.5z" />
    <glyph glyph-name="one" unicode="1" horiz-adv-x="646" 
d="M283 0v520l-132 -102l-87 119l233 171h154v-708h-168z" />
    <glyph glyph-name="two" unicode="2" horiz-adv-x="646" 
d="M68 0v140l276 250q26 25 42 51t16 58q0 38 -24 61.5t-64 23.5q-42 0 -68.5 -29.5t-31.5 -77.5l-161 22q6 54 29.5 96t59.5 71.5t82.5 45t98.5 15.5q49 0 95 -13t82 -40t57.5 -68t21.5 -96q0 -38 -10 -68.5t-27.5 -56.5t-40 -48.5t-46.5 -44.5l-164 -146h289v-146h-512z
" />
    <glyph glyph-name="three" unicode="3" horiz-adv-x="646" 
d="M583 206q0 -58 -23.5 -100.5t-61.5 -70t-85.5 -41t-96.5 -13.5q-48 0 -93.5 11t-83 33.5t-65.5 58t-42 85.5l156 41q10 -35 41 -61.5t79 -26.5q18 0 36.5 5t33 15.5t24 27.5t9.5 42q0 27 -12.5 45t-33 28.5t-46.5 15t-52 4.5h-45v123h49q24 0 46 3.5t39.5 13t28 25.5
t10.5 42q0 38 -27 58t-62 20q-36 0 -62.5 -21.5t-34.5 -57.5l-156 36q13 45 39 78.5t61.5 56t77.5 34t86 11.5q47 0 91.5 -12t79.5 -37t56.5 -62.5t21.5 -88.5q0 -59 -33.5 -99.5t-85.5 -54.5v-3q30 -7 55 -22.5t43 -37t28 -48t10 -56.5z" />
    <glyph glyph-name="four" unicode="4" horiz-adv-x="646" 
d="M359 536h-3l-168 -262h171v262zM515 138v-138h-157v138h-333v141l288 429h201v-434h98v-136h-97z" />
    <glyph glyph-name="five" unicode="5" horiz-adv-x="646" 
d="M582 234q0 -65 -23 -112.5t-61.5 -78.5t-87.5 -46.5t-101 -15.5q-48 0 -91.5 12.5t-79 35.5t-61 56.5t-37.5 75.5l153 47q11 -37 41.5 -61t72.5 -24q43 0 74.5 26t31.5 77q0 31 -13 52t-33.5 33.5t-46.5 17.5t-52 5q-38 0 -86.5 -8.5t-86.5 -22.5l17 405h434v-144h-285
l-6 -112q16 4 35.5 5.5t35.5 1.5q53 0 100 -14t81.5 -42.5t54.5 -70.5t20 -98z" />
    <glyph glyph-name="six" unicode="6" horiz-adv-x="646" 
d="M433 234q0 48 -30 79.5t-80 31.5t-81 -31t-31 -81q0 -46 30 -79t81 -33q50 0 80.5 31t30.5 82zM601 238q0 -60 -22 -108t-60 -81t-89 -50.5t-108 -17.5q-58 0 -108.5 17.5t-88.5 50.5t-60 80t-22 105q0 63 22 114.5t57 104.5l171 255h203l-174 -242l-3 -5q10 4 24 6t26 2
q46 0 88.5 -16.5t74 -47t50.5 -73t19 -94.5z" />
    <glyph glyph-name="seven" unicode="7" horiz-adv-x="646" 
d="M306 0h-195l287 564h-335v144h514v-134z" />
    <glyph glyph-name="eight" unicode="8" horiz-adv-x="646" 
d="M421 208q0 41 -27.5 68.5t-70.5 27.5q-44 0 -71.5 -27t-27.5 -69q0 -43 27.5 -68.5t71.5 -25.5t71 25.5t27 68.5zM408 516q0 35 -25 58t-60 23q-38 0 -61 -23t-23 -58q0 -34 22.5 -59t61.5 -25q37 0 61 25t24 59zM589 202q0 -56 -22 -97.5t-58.5 -69t-85 -41
t-100.5 -13.5q-53 0 -101 13.5t-84.5 40.5t-58.5 68.5t-22 97.5q0 32 10 59.5t27.5 49t40.5 37t49 23.5v2q-46 17 -77 55.5t-31 97.5q0 49 20 87t54 63.5t79 38.5t94 13t93.5 -12.5t78.5 -37.5t54.5 -62.5t20.5 -86.5q0 -59 -30 -99t-78 -56v-3q27 -8 50 -23.5t40 -37
t27 -49t10 -58.5z" />
    <glyph glyph-name="nine" unicode="9" horiz-adv-x="646" 
d="M434 476q0 46 -29.5 79.5t-80.5 33.5t-81.5 -31.5t-30.5 -82.5q0 -48 30 -79.5t80 -31.5t81 31t31 81zM602 474q0 -63 -22 -114.5t-57 -104.5l-171 -255h-203l176 244l2 3q-11 -4 -24.5 -6t-25.5 -2q-47 0 -89 16.5t-74 47t-51 73t-19 94.5q0 60 22 108t60 81t89 50.5
t108 17.5q58 0 109 -17.5t88.5 -50.5t59.5 -80t22 -105z" />
    <glyph glyph-name="colon" unicode=":" horiz-adv-x="332" 
d="M264 89q0 -20 -8 -37.5t-21 -30t-31 -20t-37 -7.5q-20 0 -38 7t-31.5 20t-21.5 30t-8 37t8 37.5t21.5 30.5t31.5 20.5t38 7.5q19 0 37 -7.5t31 -20t21 -30t8 -37.5zM264 410q0 -20 -8 -37.5t-21 -30.5t-31 -20.5t-37 -7.5q-20 0 -38 7t-31.5 20t-21.5 30t-8 37t8 37.5
t21.5 30.5t31.5 20.5t38 7.5q19 0 37 -7.5t31 -20t21 -30t8 -36.5z" />
    <glyph glyph-name="semicolon" unicode=";" horiz-adv-x="332" 
d="M168 -124h-138l75 284h160zM264 410q0 -40 -28.5 -67.5t-68.5 -27.5q-20 0 -37.5 7t-31 20t-21.5 30t-8 37t7.5 37.5t21 30.5t31.5 20.5t38 7.5q19 0 37 -7.5t31 -20t21 -30t8 -37.5z" />
    <glyph glyph-name="less" unicode="&#x3c;" horiz-adv-x="666" 
d="M79 251v103l508 214v-136l-306 -131l306 -127v-137z" />
    <glyph glyph-name="equal" unicode="=" horiz-adv-x="666" 
d="M68 150v123h530v-123h-530zM68 335v123h530v-123h-530z" />
    <glyph glyph-name="greater" unicode="&#x3e;" horiz-adv-x="666" 
d="M79 37v137l306 127l-306 131v136l508 -214v-103z" />
    <glyph glyph-name="question" unicode="?" horiz-adv-x="546" 
d="M381 85q0 -40 -28 -67.5t-69 -27.5q-20 0 -37.5 7t-31 20t-21.5 30t-8 37q0 19 7.5 36.5t21 30.5t31.5 20.5t38 7.5t37.5 -7.5t31 -20t21 -30t7.5 -36.5zM527 527q0 -33 -8 -58t-22.5 -46t-35 -39.5t-46.5 -38.5q-16 -13 -26.5 -23t-16.5 -20.5t-8.5 -22t-2.5 -27.5v-26
h-156v38q0 26 5 46.5t15 37.5t24.5 33t34.5 33l33 31q17 15 29 31.5t12 39.5q0 32 -19.5 51t-53.5 19q-42 0 -63 -28.5t-23 -64.5l-159 17q6 54 27.5 95t55.5 68t77 40.5t91 13.5q45 0 87.5 -11.5t75.5 -36t53 -62.5t20 -90z" />
    <glyph glyph-name="at" unicode="@" horiz-adv-x="800" 
d="M465 379q0 15 -2.5 29t-8.5 25t-17 17.5t-28 6.5q-19 0 -34 -11.5t-26 -30t-17 -41.5t-6 -45q0 -25 11.5 -47.5t43.5 -22.5q22 0 38 11.5t26 29.5t15 39t5 40zM774 401q0 -57 -15.5 -102t-43.5 -76t-65.5 -47t-80.5 -16q-40 0 -65.5 17.5t-29.5 46.5h-4
q-14 -23 -44 -43.5t-75 -20.5q-34 0 -60.5 12.5t-45 35t-28.5 53.5t-10 68q0 42 13.5 82.5t39 72t60.5 51t79 19.5q38 0 63 -16t32 -38h1l7 34h108l-31 -157q-5 -24 -9 -46t-4 -37q0 -14 6 -25t23 -11q30 0 53.5 34.5t23.5 104.5q0 58 -19 102.5t-53.5 74.5t-82 45.5
t-104.5 15.5q-61 0 -111.5 -21.5t-86.5 -59t-56 -89.5t-20 -112q0 -64 21 -115t59.5 -87t91 -55.5t115.5 -19.5q72 0 128.5 22.5t101.5 63.5l63 -70q-58 -57 -135.5 -83.5t-168.5 -26.5q-85 0 -156 27.5t-122 76.5t-79.5 117.5t-28.5 149.5q0 80 30.5 148t82.5 118t122 78.5
t150 28.5q70 0 135.5 -20.5t115 -61.5t79.5 -101.5t30 -141.5z" />
    <glyph glyph-name="A" unicode="A" horiz-adv-x="729" 
d="M363 519l-90 -243h178zM553 0l-55 139h-274l-52 -139h-186l297 708h166l294 -708h-190z" />
    <glyph glyph-name="B" unicode="B" horiz-adv-x="665" 
d="M454 222q0 44 -33 61t-88 17h-95v-162h96q20 0 41.5 3.5t39 12.5t28.5 25.5t11 42.5zM431 503q0 36 -27.5 52.5t-81.5 16.5h-84v-146h92q48 0 74.5 19.5t26.5 57.5zM625 206q0 -58 -23 -97.5t-61 -63.5t-86.5 -34.5t-99.5 -10.5h-282v708h282q41 0 84 -8.5t78 -29
t57 -55.5t22 -89q0 -59 -32 -97.5t-84 -55.5v-2q30 -5 56.5 -18.5t46 -34.5t31 -49t11.5 -63z" />
    <glyph glyph-name="C" unicode="C" horiz-adv-x="696" 
d="M696 98q-47 -54 -116 -85.5t-159 -31.5q-82 0 -151.5 27t-120.5 76.5t-80 118.5t-29 152q0 85 29.5 154t81.5 117.5t122 74.5t151 26q75 0 147.5 -26.5t117.5 -77.5l-116 -116q-24 33 -63 49t-80 16q-45 0 -82.5 -16.5t-64.5 -45.5t-42 -68.5t-15 -86.5q0 -48 15 -88
t41.5 -68.5t63.5 -44.5t81 -16q51 0 89 20t61 52l119 -112v0z" />
    <glyph glyph-name="D" unicode="D" horiz-adv-x="774" 
d="M556 356q0 60 -19.5 99.5t-52 63t-74 33.5t-85.5 10h-85v-414h81q46 0 88.5 10.5t75 34.5t52 64t19.5 99zM734 356q0 -93 -34.5 -160.5t-91 -111t-127.5 -64t-144 -20.5h-264v708h256q75 0 148 -17.5t130 -58t92 -108.5t35 -168z" />
    <glyph glyph-name="E" unicode="E" horiz-adv-x="607" 
d="M73 0v708h476v-145h-311v-133h294v-137h-294v-147h329v-146h-494z" />
    <glyph glyph-name="F" unicode="F" horiz-adv-x="576" 
d="M242 562v-146h274v-141h-274v-275h-169v708h466v-146h-297z" />
    <glyph glyph-name="G" unicode="G" horiz-adv-x="769" 
d="M702 43q-52 -27 -121.5 -44t-151.5 -17q-85 0 -156.5 27t-123 76t-80.5 117.5t-29 152.5q0 85 29.5 154t81.5 117.5t122 74.5t151 26q84 0 156 -25.5t117 -68.5l-108 -123q-25 29 -66 47.5t-93 18.5q-45 0 -83 -16.5t-66 -46t-43.5 -70t-15.5 -88.5q0 -49 14 -90
t41.5 -70.5t68 -46t92.5 -16.5q30 0 57 4.5t50 14.5v129h-135v138h292v-375v0z" />
    <glyph glyph-name="H" unicode="H" horiz-adv-x="764" 
d="M520 0v296h-276v-296h-171v708h171v-268h276v268h171v-708h-171z" />
    <glyph glyph-name="I" unicode="I" horiz-adv-x="318" 
d="M73 0v708h172v-708h-172z" />
    <glyph glyph-name="J" unicode="J" horiz-adv-x="529" 
d="M460 242q0 -42 -9.5 -88t-35 -84.5t-71 -63.5t-117.5 -25q-90 0 -150 46.5t-80 119.5l151 51q7 -28 25.5 -45t45.5 -17q42 0 55.5 29t13.5 76v467h172v-466v0z" />
    <glyph glyph-name="K" unicode="K" horiz-adv-x="711" 
d="M506 0l-263 326h-2v-326h-168v708h168v-288h3l253 288h214l-305 -326l323 -382h-223z" />
    <glyph glyph-name="L" unicode="L" horiz-adv-x="526" 
d="M73 0v708h172v-559h274v-149h-446z" />
    <glyph glyph-name="M" unicode="M" horiz-adv-x="955" 
d="M715 0l4 501h-3l-184 -501h-120l-179 501h-3l4 -501h-161v708h243l161 -454h4l154 454h247v-708h-167z" />
    <glyph glyph-name="N" unicode="N" horiz-adv-x="790" 
d="M523 0l-285 463h-3l4 -463h-166v708h195l284 -462h3l-4 462h166v-708h-194z" />
    <glyph glyph-name="O" unicode="O" horiz-adv-x="851" 
d="M628 357q0 46 -15 86t-41.5 68.5t-64 45t-82.5 16.5t-82 -16.5t-64 -45t-41.5 -68.5t-14.5 -86q0 -48 15 -88.5t41.5 -69.5t63.5 -45.5t82 -16.5t82 16.5t64 45.5t42 69.5t15 88.5zM811 357q0 -84 -29 -153.5t-80.5 -119t-122.5 -76.5t-154 -27t-153.5 27t-122 76.5
t-80.5 119t-29 153.5q0 85 29 153.5t80.5 116.5t122 74t153.5 26t154 -26t122.5 -74t80.5 -116.5t29 -153.5z" />
    <glyph glyph-name="P" unicode="P" horiz-adv-x="640" 
d="M439 489q0 25 -10 41t-27 25t-38.5 12t-44.5 3h-75v-167h72q24 0 46 4t39.5 14t27.5 26.5t10 41.5zM610 490q0 -62 -23 -104.5t-62 -68.5t-90 -38t-106 -12h-85v-267h-171v708h260q58 0 108.5 -11.5t88 -37t59 -67t21.5 -102.5z" />
    <glyph glyph-name="Q" unicode="Q" horiz-adv-x="857" 
d="M620 361q0 46 -14.5 85t-41 67t-63.5 43.5t-81 15.5q-43 0 -79.5 -15.5t-63.5 -43.5t-42 -67t-15 -85q0 -48 14.5 -87.5t41 -68t63 -44t80.5 -15.5q43 0 80 15.5t64 44t42 68t15 87.5zM414 0q-84 0 -154 24t-119.5 70.5t-77 114t-27.5 154.5q0 81 29 148t80.5 115
t122 74.5t152.5 26.5t152 -26.5t121 -74t79.5 -114t28.5 -146.5q0 -41 -9 -76.5t-24 -64.5t-34 -51.5t-38 -37.5v-3l149 3v-136h-431z" />
    <glyph glyph-name="R" unicode="R" horiz-adv-x="663" 
d="M445 491q0 25 -10.5 40.5t-27 24t-37 11.5t-39.5 3h-91v-165h81q21 0 43 3.5t40 12.5t29.5 26t11.5 44zM452 0l-153 281h-58v-281h-168v708h270q51 0 99.5 -10.5t87 -35.5t61.5 -66t23 -102q0 -72 -39 -121t-108 -70l185 -303h-200z" />
    <glyph glyph-name="S" unicode="S" horiz-adv-x="591" 
d="M447 524q-22 28 -57.5 44.5t-68.5 16.5q-17 0 -34.5 -3t-31.5 -11.5t-23.5 -22t-9.5 -34.5q0 -18 7.5 -30t22 -21t34.5 -16.5t45 -15.5q36 -12 75 -26.5t71 -38.5t53 -59.5t21 -88.5q0 -61 -22.5 -105.5t-60.5 -73.5t-87 -43t-101 -14q-76 0 -147 26.5t-118 75.5l112 114
q26 -32 68.5 -53.5t84.5 -21.5q19 0 37 4t31.5 13t21.5 24t8 36q0 20 -10 34t-28.5 25.5t-46 21t-62.5 20.5q-34 11 -66.5 26t-58 38.5t-41 57t-15.5 81.5q0 59 24 101t63 69t88 39.5t99 12.5q60 0 122.5 -22t109.5 -65z" />
    <glyph glyph-name="T" unicode="T" horiz-adv-x="581" 
d="M376 562v-562h-171v562h-200v146h571v-146h-200z" />
    <glyph glyph-name="U" unicode="U" horiz-adv-x="738" 
d="M673 267q0 -64 -21.5 -116.5t-61.5 -90t-96.5 -58.5t-125.5 -21q-70 0 -126 21t-95 58.5t-60 90t-21 116.5v441h170v-427q0 -29 7.5 -55t23 -46.5t41 -32.5t61.5 -12t61.5 12t41.5 32.5t23 46.5t7 55v427h171v-441v0z" />
    <glyph glyph-name="V" unicode="V" horiz-adv-x="682" 
d="M424 0h-171l-268 708h192l164 -502h4l163 502h189z" />
    <glyph glyph-name="W" unicode="W" horiz-adv-x="1025" 
d="M823 0h-169l-140 479h-3l-140 -479h-170l-201 708h184l112 -471h3l126 471h178l127 -471h3l114 471h178z" />
    <glyph glyph-name="X" unicode="X" horiz-adv-x="703" 
d="M500 0l-155 250l-149 -250h-204l248 374l-228 334h206l132 -220l130 220h199l-224 -334l256 -374h-211z" />
    <glyph glyph-name="Y" unicode="Y" horiz-adv-x="669" 
d="M417 300v-300h-171v300l-266 408h207l151 -262l151 262h200z" />
    <glyph glyph-name="Z" unicode="Z" horiz-adv-x="635" 
d="M39 0v148l337 415h-329v145h543v-137l-345 -423h352v-148h-558z" />
    <glyph glyph-name="bracketleft" unicode="[" horiz-adv-x="342" 
d="M53 -156v888h216v-102h-89v-684h89v-102h-216z" />
    <glyph glyph-name="backslash" unicode="\" horiz-adv-x="415" 
d="M309 -52l-308 775l113 39l308 -777z" />
    <glyph glyph-name="bracketright" unicode="]" horiz-adv-x="342" 
d="M73 -156v102h89v684h-89v102h216v-888h-216z" />
    <glyph glyph-name="asciicircum" unicode="^" horiz-adv-x="690" 
d="M468 343l-124 213l-123 -213h-148l213 365h118l212 -365h-148z" />
    <glyph glyph-name="underscore" unicode="_" horiz-adv-x="500" 
d="M0 -164v89h500v-89h-500z" />
    <glyph glyph-name="grave" unicode="`" 
d="M107 572l-146 144h166l104 -144h-124z" />
    <glyph glyph-name="a" unicode="a" horiz-adv-x="566" 
d="M57 430q44 42 102.5 63t119.5 21q63 0 106.5 -15.5t70.5 -48t39.5 -82t12.5 -117.5v-251h-150v53h-3q-19 -31 -57.5 -48t-83.5 -17q-30 0 -62 8t-58.5 26t-43.5 48t-17 74q0 54 29.5 87t76 51t103.5 24t111 6v8q0 37 -26 54.5t-64 17.5q-35 0 -67.5 -15t-55.5 -36z
M358 217h-21q-27 0 -54.5 -2.5t-49 -9.5t-35.5 -20.5t-14 -35.5q0 -14 6.5 -24t16.5 -16t23 -8.5t25 -2.5q50 0 76.5 27.5t26.5 74.5v17z" />
    <glyph glyph-name="b" unicode="b" horiz-adv-x="659" 
d="M461 251q0 24 -7.5 47t-22.5 40.5t-37 28.5t-51 11q-28 0 -50 -11t-37.5 -29t-24 -41t-8.5 -47t8.5 -47t24 -41t37.5 -29t50 -11q29 0 51 11t37 29t22.5 41.5t7.5 47.5zM619 251q0 -52 -16 -100t-46.5 -84.5t-74.5 -58.5t-100 -22q-50 0 -94.5 20.5t-68.5 58.5h-2v-65
h-151v756h164v-311h2q21 25 59 46t93 21q54 0 97.5 -21t74 -57t47 -83.5t16.5 -99.5z" />
    <glyph glyph-name="c" unicode="c" horiz-adv-x="503" 
d="M407 337q-14 18 -38 29t-49 11q-26 0 -47 -10.5t-36 -28t-23.5 -40.5t-8.5 -49t8 -49t23.5 -40.5t37 -27.5t48.5 -10q25 0 49.5 9.5t39.5 27.5l91 -111q-31 -30 -80 -47t-104 -17q-59 0 -110 18t-88.5 52.5t-59 83.5t-21.5 111q0 61 21.5 110t59 83.5t88.5 53t109 18.5
q27 0 53.5 -5t51 -13.5t45 -21t35.5 -27.5z" />
    <glyph glyph-name="d" unicode="d" horiz-adv-x="658" 
d="M435 250q0 24 -8.5 47t-24 41t-37.5 29t-50 11q-29 0 -51 -11t-37 -28.5t-22.5 -40.5t-7.5 -47t7.5 -47.5t22.5 -41.5t37 -29t51 -11q28 0 50 11t37.5 29t24 41t8.5 47zM441 0v65h-2q-24 -38 -68.5 -58.5t-94.5 -20.5q-56 0 -100 22t-74.5 58.5t-46.5 84.5t-16 100
t16.5 99.5t47 83.5t74 57t97.5 21q55 0 93 -21t59 -46h2v311h164v-756h-151z" />
    <glyph glyph-name="e" unicode="e" horiz-adv-x="596" 
d="M558 243v-20t-1 -19h-361q2 -21 12.5 -38t27 -29.5t37 -19.5t42.5 -7q39 0 66 14.5t44 37.5l114 -72q-35 -51 -92.5 -78.5t-133.5 -27.5q-56 0 -106 17.5t-87.5 51t-59 82.5t-21.5 112q0 61 21 110.5t57 84t85 53.5t106 19q55 0 101 -18.5t79 -53.5t51.5 -85t18.5 -114z
M407 306q0 39 -24.5 67t-73.5 28q-24 0 -44 -7.5t-35 -20.5t-24 -30.5t-10 -36.5h211z" />
    <glyph glyph-name="f" unicode="f" horiz-adv-x="364" 
d="M373 635q-9 3 -21 5t-24 2q-23 0 -37 -8t-22 -21.5t-11 -30.5t-3 -34v-50h111v-123h-111v-375h-164v375h-91v123h91v48q0 46 10 87.5t34.5 73t66 50t103.5 18.5q21 0 41.5 -2.5t37.5 -7.5z" />
    <glyph glyph-name="g" unicode="g" horiz-adv-x="658" 
d="M436 252q0 25 -8.5 48t-24.5 40.5t-38 27.5t-50 10t-49.5 -10t-36.5 -27t-23 -40t-8 -49q0 -25 8 -48t23 -40.5t36.5 -28t49.5 -10.5t50.5 10.5t38 27.5t24 40t8.5 49zM592 47q0 -73 -21 -127t-59 -89.5t-92.5 -53t-120.5 -17.5t-135.5 20t-120.5 58l82 117
q36 -32 79.5 -47.5t85.5 -15.5q72 0 106.5 38t34.5 101v30h-3q-23 -30 -62 -48t-89 -18q-57 0 -101 20.5t-74.5 55.5t-46.5 81.5t-16 98.5t16 99t46.5 83t74.5 57.5t100 21.5q47 0 90 -19t69 -59h2v64h155v-451v0z" />
    <glyph glyph-name="h" unicode="h" horiz-adv-x="617" 
d="M392 0v270q0 21 -3 40t-11.5 33.5t-22.5 23t-36 8.5q-43 0 -66 -30.5t-23 -75.5v-269h-164v756h164v-321h2q17 30 54 53.5t89 23.5q51 0 85.5 -18t56 -46.5t31 -65.5t9.5 -74v-308h-165z" />
    <glyph glyph-name="i" unicode="i" horiz-adv-x="296" 
d="M66 0v498h164v-498h-164zM242 657q0 -19 -7.5 -35.5t-20 -28.5t-30 -19t-36.5 -7q-40 0 -67 26.5t-27 63.5q0 18 7 34.5t20 28.5t30 19.5t37 7.5q19 0 36.5 -7t30 -19t20 -28.5t7.5 -35.5z" />
    <glyph glyph-name="j" unicode="j" horiz-adv-x="299" 
d="M233 -13q0 -46 -8.5 -87.5t-30.5 -72.5t-61 -49t-99 -18q-17 0 -37 2t-34 6l11 137q9 -3 18.5 -4t16.5 -1q36 0 48 24.5t12 62.5v511h164v-511v0zM245 657q0 -19 -7.5 -35.5t-20 -28.5t-30 -19t-36.5 -7q-40 0 -67 26.5t-27 63.5q0 18 7 34.5t20 28.5t30 19.5t37 7.5
q19 0 36.5 -7t30 -19t20 -28.5t7.5 -35.5z" />
    <glyph glyph-name="k" unicode="k" horiz-adv-x="595" 
d="M599 0h-203l-163 239h-3v-239h-165v756h165v-460h3l159 202h199l-192 -225z" />
    <glyph glyph-name="l" unicode="l" horiz-adv-x="298" 
d="M66 0v756h166v-756h-166z" />
    <glyph glyph-name="m" unicode="m" horiz-adv-x="924" 
d="M700 0v272q0 21 -3 40.5t-11 33.5t-21.5 22.5t-35.5 8.5q-21 0 -36.5 -9t-26 -24t-15.5 -34.5t-5 -40.5v-269h-164v284q0 43 -17 68t-54 25q-39 0 -60.5 -31t-21.5 -76v-270h-165v498h159v-69h2q9 16 22.5 31t32.5 26.5t42.5 18.5t51.5 7q54 0 91.5 -22t58.5 -63
q25 39 64 62t95 23q51 0 85.5 -18.5t55.5 -48t30.5 -66t9.5 -71.5v-308h-164z" />
    <glyph glyph-name="n" unicode="n" horiz-adv-x="616" 
d="M391 0v272q0 21 -3.5 40t-11.5 33.5t-22.5 23t-36.5 8.5t-38.5 -8.5t-27.5 -23.5t-16.5 -34.5t-5.5 -40.5v-270h-165v498h159v-69h2q9 16 23.5 31.5t34 26.5t42.5 18t49 7q50 0 85 -18t56.5 -46.5t31 -65.5t9.5 -74v-308h-165z" />
    <glyph glyph-name="o" unicode="o" horiz-adv-x="632" 
d="M434 251q0 24 -8 47t-23 40.5t-37 28.5t-51 11t-51 -11t-36.5 -28.5t-22 -40.5t-7.5 -47t7.5 -47t22.5 -41.5t37 -29.5t51 -11t51 11t37 29.5t22.5 41.5t7.5 47zM592 251q0 -61 -22 -110.5t-60 -84t-88 -53.5t-107 -19q-56 0 -106.5 19t-88 53.5t-59.5 84t-22 110.5
t22 110t59.5 83t88 52t106.5 18q57 0 107 -18t88 -52t60 -83t22 -110z" />
    <glyph glyph-name="p" unicode="p" horiz-adv-x="657" 
d="M459 251q0 24 -7.5 47t-22 40.5t-36.5 28.5t-51 11q-28 0 -50 -11t-37.5 -29t-24 -41t-8.5 -47t8.5 -47t24 -41t37.5 -29t50 -11q29 0 51 11t36.5 29t22 41.5t7.5 47.5zM618 251q0 -52 -16 -100t-46.5 -84.5t-74.5 -58.5t-100 -22q-46 0 -87 18.5t-64 50.5h-2v-295h-164
v738h156v-61h3q23 30 63.5 52.5t95.5 22.5q54 0 98 -21t74.5 -57t47 -83.5t16.5 -99.5z" />
    <glyph glyph-name="q" unicode="q" horiz-adv-x="657" 
d="M435 250q0 24 -8.5 47t-24 41t-37.5 29t-50 11q-29 0 -51 -11t-37 -28.5t-22.5 -40.5t-7.5 -47t7.5 -47.5t22.5 -41.5t37 -29t51 -11q28 0 50 11t37.5 29t24 41t8.5 47zM429 -240v295h-2q-24 -32 -64.5 -50.5t-86.5 -18.5q-57 0 -101 22t-74 58.5t-46 84.5t-16 100
t16.5 99.5t47 83.5t74 57t97.5 21q56 0 96.5 -22.5t63.5 -52.5h3v61h155v-738h-163z" />
    <glyph glyph-name="r" unicode="r" horiz-adv-x="396" 
d="M387 364q-11 3 -21.5 4t-20.5 1q-33 0 -55.5 -12t-36 -29t-19.5 -37t-6 -35v-256h-164v498h158v-72h2q19 38 54 62t81 24q10 0 19.5 -1t15.5 -3z" />
    <glyph glyph-name="s" unicode="s" horiz-adv-x="472" 
d="M357 351q-20 19 -47 32t-57 13q-23 0 -42.5 -9t-19.5 -31q0 -21 21.5 -30t69.5 -20q28 -6 56.5 -17t51.5 -29t37 -44t14 -62q0 -47 -19 -79.5t-49.5 -52.5t-68.5 -29t-76 -9q-61 0 -119.5 19.5t-97.5 57.5l92 97q22 -24 54 -40t68 -16q20 0 39.5 9.5t19.5 33.5
q0 23 -24 34t-75 23q-26 6 -52 16t-46.5 27t-33.5 42t-13 60q0 45 19 76.5t49 51.5t66.5 29.5t72.5 9.5q56 0 109.5 -17.5t90.5 -52.5z" />
    <glyph glyph-name="t" unicode="t" horiz-adv-x="372" 
d="M242 375v-190q0 -35 13.5 -52.5t48.5 -17.5q12 0 25.5 2t22.5 6l2 -120q-17 -6 -43 -10.5t-52 -4.5q-50 0 -84 12.5t-54.5 36t-29.5 56t-9 72.5v210h-80v123h79v131h161v-131h117v-123h-117z" />
    <glyph glyph-name="u" unicode="u" horiz-adv-x="614" 
d="M392 0v69h-2q-9 -17 -23.5 -32t-34 -26t-43 -18t-49.5 -7q-50 0 -84.5 18t-56 46.5t-31 65t-9.5 74.5v308h165v-270q0 -21 3 -40t11.5 -34t22.5 -23.5t37 -8.5q43 0 65.5 32t22.5 75v269h164v-498h-158z" />
    <glyph glyph-name="v" unicode="v" horiz-adv-x="567" 
d="M372 0h-177l-196 498h181l105 -323h3l105 323h175z" />
    <glyph glyph-name="w" unicode="w" horiz-adv-x="871" 
d="M698 0h-165l-98 310h-2l-96 -310h-165l-172 498h177l86 -315h3l89 315h165l92 -315h2l87 315h170z" />
    <glyph glyph-name="x" unicode="x" horiz-adv-x="594" 
d="M404 0l-107 153l-110 -153h-190l199 261l-180 237h191l93 -133l94 133h185l-179 -237l197 -261h-193z" />
    <glyph glyph-name="y" unicode="y" horiz-adv-x="567" 
d="M345 -75q-15 -39 -33.5 -69.5t-44 -52t-60 -32.5t-81.5 -11q-23 0 -47.5 3t-42.5 8l18 138q12 -4 26.5 -6.5t26.5 -2.5q38 0 55 17.5t29 49.5l16 41l-208 490h182l111 -320h3l99 320h174z" />
    <glyph glyph-name="z" unicode="z" horiz-adv-x="512" 
d="M34 0v128l234 244h-225v126h425v-123l-241 -248h251v-127h-444z" />
    <glyph glyph-name="braceleft" unicode="{" horiz-adv-x="342" 
d="M210 -156q-63 0 -100 40t-37 108v167q0 23 -6 37.5t-15.5 22.5t-21.5 11t-24 3v110q12 0 24 3t21.5 10.5t15.5 21.5t6 35v171q0 68 37 108t100 40h82v-105h-47q-29 0 -37.5 -19t-8.5 -41v-167q0 -29 -10 -49.5t-24.5 -33.5t-30.5 -20t-28 -8v-2q12 -1 28 -7t30.5 -19
t24.5 -34.5t10 -54.5v-163q0 -22 8.5 -41t37.5 -19h47v-105h-82z" />
    <glyph glyph-name="bar" unicode="|" horiz-adv-x="241" 
d="M56 -250l-1 1000h131v-1000h-130z" />
    <glyph glyph-name="braceright" unicode="}" horiz-adv-x="342" 
d="M336 233q-12 0 -24 -3t-21.5 -11t-15.5 -22.5t-6 -37.5v-167q0 -68 -37 -108t-100 -40h-82v105h47q29 0 37.5 19t8.5 41v163q0 33 10 54.5t24.5 34.5t30.5 19t28 7v2q-12 1 -28 8t-30.5 20t-24.5 33.5t-10 49.5v167q0 22 -8.5 41t-37.5 19h-47v105h82q63 0 100 -40
t37 -108v-171q0 -21 6 -35t15.5 -21.5t21.5 -10.5t24 -3v-110v0z" />
    <glyph glyph-name="asciitilde" unicode="~" horiz-adv-x="666" 
d="M593 285q-11 -19 -24.5 -37t-30 -32t-37.5 -22.5t-47 -8.5q-32 0 -56.5 9t-55.5 29q-30 19 -54.5 28.5t-52.5 9.5q-29 0 -49 -19.5t-35 -50.5l-66 104q23 45 56.5 72t80.5 27q32 0 61 -9.5t59 -27.5q34 -20 58 -30t41 -10q28 0 48.5 22t38.5 49l65 -101v-2z" />
    <glyph glyph-name="uni00A0" unicode="&#xa0;" horiz-adv-x="250" 
 />
    <glyph glyph-name="exclamdown" unicode="&#xa1;" horiz-adv-x="357" 
d="M94 -200v471h168v-471h-168zM276 423q0 -20 -7.5 -37t-21 -29.5t-31.5 -20t-38 -7.5t-38 7.5t-31 20.5t-20.5 30t-7.5 37t8 37t21 30t30.5 20t37.5 7t38 -7.5t31.5 -20t21 -30t7.5 -37.5z" />
    <glyph glyph-name="cent" unicode="&#xa2;" horiz-adv-x="646" 
d="M314 382q-45 -11 -68.5 -47.5t-23.5 -85.5q0 -48 24 -84.5t68 -48.5v266zM550 51q-29 -29 -72 -45t-88 -20v-65h-76v65q-53 6 -96 28t-73.5 56.5t-47 80.5t-16.5 99q0 54 16.5 98.5t47.5 78.5t73.5 55.5t95.5 29.5v64h76v-64q46 -3 88.5 -18.5t70.5 -44.5l-83 -104
q-31 33 -76 39v-270q23 2 43.5 12.5t35.5 26.5l81 -102v0z" />
    <glyph glyph-name="sterling" unicode="&#xa3;" horiz-adv-x="646" 
d="M529 548q-16 17 -40.5 27.5t-51.5 10.5q-31 0 -51.5 -11t-32.5 -28.5t-16.5 -38.5t-4.5 -41v-51h156v-115h-156v-160h259v-141h-519v141h95v160h-95v115h95v61q0 41 14.5 85t45.5 81t80.5 60.5t119.5 23.5q65 0 114.5 -19t83.5 -50z" />
    <glyph glyph-name="currency" unicode="&#xa4;" horiz-adv-x="646" 
d="M324 415q-27 0 -49 -10t-37.5 -26.5t-23.5 -39.5t-8 -48q0 -26 8 -48.5t23.5 -39.5t37.5 -27t49 -10q28 0 50 10t37.5 27t23.5 39.5t8 48.5q0 25 -8 48t-23.5 39.5t-37.5 26.5t-50 10zM536 419q18 -29 26 -60.5t8 -67.5q0 -33 -9.5 -70t-26.5 -63l82 -81l-81 -84l-84 84
q-52 -33 -127 -33q-31 0 -65.5 9.5t-61.5 25.5l-85 -86l-83 83l86 85q-17 27 -26 62t-9 68q0 36 7.5 68t24.5 59l-82 81l82 81l82 -81q29 17 62 27t68 10q34 0 68.5 -9.5t61.5 -25.5l79 79l84 -81z" />
    <glyph glyph-name="yen" unicode="&#xa5;" horiz-adv-x="646" 
d="M458 416h124v-103h-179v-65h179v-103h-179v-145h-158v145h-178v103h178v65h-178v103h127l-182 292h185l132 -260l129 260h179z" />
    <glyph glyph-name="brokenbar" unicode="&#xa6;" horiz-adv-x="241" 
d="M55 -175v362h131v-362h-131zM55 313v362h131v-362h-131z" />
    <glyph glyph-name="section" unicode="&#xa7;" horiz-adv-x="607" 
d="M414 263q0 30 -24 46.5t-54 29.5l-86 35q-17 -7 -29 -19.5t-12 -33.5q0 -15 6.5 -26t18 -19.5t26 -14.5t29.5 -12l94 -37q15 7 23 21t8 30zM562 279q0 -40 -20.5 -73t-54.5 -52q27 -19 38.5 -48t11.5 -62q0 -52 -22.5 -88.5t-58 -59.5t-78.5 -33.5t-85 -10.5
q-36 0 -72.5 7.5t-70 23t-62 38t-48.5 52.5l122 87q23 -38 61.5 -55.5t72.5 -17.5q12 0 25 3t23.5 9.5t17.5 16t7 22.5q0 16 -7.5 28t-23.5 21.5t-41 19t-59 21.5q-37 13 -69 27t-56 33.5t-37.5 46t-13.5 63.5q0 51 25.5 84.5t60.5 53.5q-53 39 -53 113q0 46 21.5 79.5
t55 55.5t74.5 32t79 10q74 0 133.5 -26t94.5 -77l-116 -88q-18 28 -47 44t-58 16q-12 0 -25 -3t-23 -9t-16.5 -15t-6.5 -22q0 -27 29.5 -44.5t87.5 -37.5q37 -14 70.5 -30t59 -37.5t40 -50t14.5 -67.5z" />
    <glyph glyph-name="dieresis" unicode="&#xa8;" 
d="M125 658q0 -35 -24.5 -58.5t-59.5 -23.5t-59 24t-24 58q0 16 6.5 30.5t17.5 26t26.5 18t32.5 6.5q35 0 59.5 -23.5t24.5 -57.5zM342 658q0 -35 -24.5 -58.5t-58.5 -23.5q-35 0 -59 24t-24 58q0 16 6.5 30.5t17.5 26t26 18t33 6.5q34 0 58.5 -23.5t24.5 -57.5z" />
    <glyph glyph-name="copyright" unicode="&#xa9;" horiz-adv-x="800" 
d="M508 440q-14 18 -38.5 28.5t-51.5 10.5q-28 0 -49 -10.5t-35.5 -28.5t-22 -40.5t-7.5 -46.5t7.5 -47t22.5 -41t37.5 -29t52.5 -11q26 0 49.5 9.5t38.5 26.5l72 -76q-29 -30 -72 -46.5t-93 -16.5q-49 0 -92 15.5t-75.5 44.5t-51 72t-18.5 98q0 53 19 95.5t51 72t75.5 45.5
t91.5 16q50 0 94.5 -18.5t71.5 -52.5zM720 353q0 66 -25 124.5t-68.5 102t-101.5 69t-124 25.5t-124.5 -25.5t-102 -69t-69 -102t-25.5 -124.5t25 -124t68 -101.5t101.5 -68.5t124.5 -25t124.5 25t102 68.5t69 101.5t25.5 124zM780 353q0 -78 -30 -146.5t-81.5 -119.5
t-120.5 -80t-147 -29q-79 0 -148.5 29t-121 80t-81.5 119.5t-30 146.5q0 79 30 147.5t81.5 119.5t121 80.5t148.5 29.5q78 0 147 -29.5t120.5 -80.5t81.5 -119.5t30 -147.5z" />
    <glyph glyph-name="ordfeminine" unicode="&#xaa;" horiz-adv-x="384" 
d="M234 553h-12q-14 0 -28 -1.5t-25.5 -5t-19 -10.5t-7.5 -18q0 -14 12 -20.5t25 -6.5q26 0 40.5 14t14.5 36v12zM236 458h-1q-11 -17 -34 -25.5t-50 -8.5q-19 0 -38 5t-34 15.5t-24.5 27.5t-9.5 40q0 33 17.5 52t44.5 29.5t60 13.5t64 3v4q0 18 -14 26.5t-36 8.5
q-20 0 -38 -8t-30 -20q-14 14 -27 27.5t-27 27.5q25 23 60 35t71 12q41 0 68 -10.5t42.5 -28t22 -40.5t6.5 -49v-164h-93v27z" />
    <glyph glyph-name="guillemotleft" unicode="&#xab;" horiz-adv-x="543" 
d="M186 22l-161 232l161 232l97 -63l-115 -169l116 -169zM412 22l-161 232l161 232l97 -63l-115 -169l115 -169z" />
    <glyph glyph-name="logicalnot" unicode="&#xac;" horiz-adv-x="666" 
d="M476 145v183h-425v123h555v-306h-130z" />
    <glyph glyph-name="uni00AD" unicode="&#xad;" horiz-adv-x="326" 
d="M36 197v130h254v-130h-254z" />
    <glyph glyph-name="registered" unicode="&#xae;" horiz-adv-x="600" 
d="M108 492q0 -39 15 -74t41.5 -61.5t61.5 -41.5t75 -15t74.5 15t60.5 41.5t41 61.5t15 74q0 40 -15 75t-41 61t-60.5 41t-74.5 15t-75 -15t-61.5 -41t-41.5 -61t-15 -75zM72 492q0 47 18 88.5t49 72t73 48.5t89 18t88.5 -18t72 -48.5t48.5 -72t18 -88.5t-18 -88
t-48.5 -71.5t-72 -48t-88.5 -17.5t-89 17.5t-73 48t-49 71.5t-18 88zM339 365l-44 94h-16v-94h-88v266h114q21 0 43 -4t39 -14t28 -26.5t11 -41.5q0 -55 -48 -74l61 -106h-100zM305 521q12 0 20 6.5t8 16.5q0 8 -8.5 13t-19.5 5h-26v-41h26z" />
    <glyph glyph-name="macron" unicode="&#xaf;" 
d="M-18 601v86h336v-86h-336z" />
    <glyph glyph-name="degree" unicode="&#xb0;" horiz-adv-x="416" 
d="M296 558q0 36 -25.5 62t-62.5 26t-62.5 -26t-25.5 -62q0 -37 25.5 -62.5t62.5 -25.5t62.5 25.5t25.5 62.5zM376 558q0 -35 -13 -66t-35.5 -53.5t-53.5 -35.5t-66 -13t-66 13t-53.5 35.5t-35.5 53.5t-13 66t13 65.5t35.5 53t53.5 35.5t66 13t66 -13t53.5 -35.5t35.5 -53
t13 -65.5z" />
    <glyph glyph-name="plusminus" unicode="&#xb1;" horiz-adv-x="666" 
d="M61 31v127h555v-127h-555zM404 331v-132h-130v132h-213v127h213v132h130v-132h212v-127h-212z" />
    <glyph glyph-name="twosuperior" unicode="&#xb2;" horiz-adv-x="420" 
d="M55 275v92l170 155q13 12 21 25.5t8 30.5q0 18 -12 29.5t-33 11.5q-23 0 -37.5 -17t-16.5 -44l-110 13q4 35 18.5 62.5t37.5 46.5t52 29t61 10q30 0 59 -8t51.5 -24.5t36 -41.5t13.5 -60q0 -24 -6.5 -43t-17 -34.5t-24 -29.5t-28.5 -27l-87 -77h163v-99h-319z" />
    <glyph glyph-name="threesuperior" unicode="&#xb3;" horiz-adv-x="420" 
d="M379 404q0 -36 -14.5 -62t-38 -42.5t-52.5 -24.5t-59 -8t-57.5 7t-51 21.5t-41 37.5t-26.5 56l105 28q7 -22 22.5 -37.5t41.5 -15.5q20 0 38 10t18 36q0 15 -6.5 24t-17.5 14t-25 7t-29 2h-33v84h36q27 0 46 10t19 36q0 17 -13 27.5t-33 10.5q-18 0 -32 -13t-19 -35
l-105 25q8 29 24.5 51t38.5 37t48 22.5t53 7.5q30 0 57.5 -7t48.5 -22t34 -38t13 -54q0 -34 -15.5 -58t-41.5 -37q32 -11 49.5 -38t17.5 -62z" />
    <glyph glyph-name="acute" unicode="&#xb4;" 
d="M193 572h-124l104 144h166z" />
    <glyph glyph-name="mu" unicode="&#xb5;" horiz-adv-x="666" 
d="M251 498v-248q0 -17 2.5 -38.5t11 -40.5t23.5 -32t40 -13t42.5 9t28 24t15.5 35t5 43v261h162v-498h-155v57h-1q-15 -26 -40.5 -45t-70.5 -19q-18 0 -35 5t-28 15v-239h-162v724h162z" />
    <glyph glyph-name="paragraph" unicode="&#xb6;" horiz-adv-x="618" 
d="M439 -129v737h-85v-737h-116v464q-49 1 -88.5 14.5t-67.5 37.5t-43 57t-15 74q0 54 19 90.5t52 58.5t77.5 31.5t95.5 9.5h287v-837h-116z" />
    <glyph glyph-name="periodcentered" unicode="&#xb7;" 
d="M251 291q0 -42 -29.5 -70t-70.5 -28q-21 0 -39.5 7.5t-32.5 20.5t-22 30.5t-8 38.5q0 20 8 38t22 31.5t32.5 21.5t39.5 8q41 0 70.5 -28t29.5 -70z" />
    <glyph glyph-name="cedilla" unicode="&#xb8;" 
d="M283 -142q0 -29 -14 -48t-36 -30t-47.5 -15.5t-49.5 -4.5q-31 0 -63.5 7t-55.5 18l27 60q19 -9 41.5 -14t42.5 -5q16 0 33 6.5t17 26.5q0 18 -16 23.5t-31 5.5q-9 0 -20 -1.5t-20 -4.5l-31 29l67 89h82l-47 -60q5 1 9 1h9q18 0 36.5 -3.5t33 -12.5t24 -25.5t9.5 -41.5z
" />
    <glyph glyph-name="onesuperior" unicode="&#xb9;" horiz-adv-x="420" 
d="M180 272v306l-74 -58l-60 81l145 107h106v-436h-117z" />
    <glyph glyph-name="ordmasculine" unicode="&#xba;" horiz-adv-x="384" 
d="M253 575q0 25 -16 44t-45 19t-44 -19t-15 -44q0 -26 15 -45t44 -19t45 19t16 45zM348 575q0 -34 -12 -62t-33 -47.5t-49.5 -30.5t-61.5 -11q-32 0 -60.5 11t-49.5 30.5t-33 47.5t-12 62t12 61.5t33 47t49.5 30t60.5 10.5q33 0 61.5 -10.5t49.5 -30t33 -47t12 -61.5z" />
    <glyph glyph-name="guillemotright" unicode="&#xbb;" horiz-adv-x="543" 
d="M132 22l-97 63l115 168l-116 170l98 63l161 -233zM357 22l-97 63l115 168l-115 170l97 63l162 -233z" />
    <glyph glyph-name="onequarter" unicode="&#xbc;" horiz-adv-x="940" 
d="M180 272v306l-74 -58l-60 81l145 107h106v-436h-117zM313 -30l-87 39l384 730l91 -40zM718 311h-1l-88 -134h89v134zM824 83v-83h-106v83h-200v93l175 260h131v-259h58v-94h-58z" />
    <glyph glyph-name="onehalf" unicode="&#xbd;" horiz-adv-x="940" 
d="M180 272v306l-74 -58l-60 81l145 107h106v-436h-117zM313 -30l-87 39l388 731l87 -41zM575 0v92l170 155q13 12 21 25.5t8 30.5q0 18 -12 29.5t-33 11.5q-23 0 -37.5 -17t-16.5 -44l-110 13q4 35 18.5 62.5t37.5 46.5t52 29t61 10q30 0 59 -8t51.5 -24.5t36 -41.5
t13.5 -60q0 -24 -6.5 -43t-17 -34.5t-24 -29.5t-28.5 -27l-87 -77h163v-99h-319z" />
    <glyph glyph-name="threequarters" unicode="&#xbe;" horiz-adv-x="940" 
d="M379 404q0 -36 -14.5 -62t-38 -42.5t-52.5 -24.5t-59 -8t-57.5 7t-51 21.5t-41 37.5t-26.5 56l105 28q7 -22 22.5 -37.5t41.5 -15.5q20 0 38 10t18 36q0 15 -6.5 24t-17.5 14t-25 7t-29 2h-33v84h36q27 0 46 10t19 36q0 17 -13 27.5t-33 10.5q-18 0 -32 -13t-19 -35
l-105 25q8 29 24.5 51t38.5 37t48 22.5t53 7.5q30 0 57.5 -7t48.5 -22t34 -38t13 -54q0 -34 -15.5 -58t-41.5 -37q32 -11 49.5 -38t17.5 -62zM313 -30l-87 39l384 730l91 -40zM718 311h-1l-88 -134h89v134zM824 83v-83h-106v83h-200v93l175 260h131v-259h58v-94h-58z" />
    <glyph glyph-name="questiondown" unicode="&#xbf;" horiz-adv-x="546" 
d="M507 -2q-6 -54 -28 -94.5t-56 -67.5t-77 -40.5t-91 -13.5q-44 0 -86.5 11.5t-75.5 36t-53.5 62t-20.5 89.5q0 33 8 58.5t22.5 46.5t35.5 39.5t47 38.5q16 12 26.5 22.5t16.5 20.5t8.5 22t2.5 27v26h156v-37q0 -26 -5 -46.5t-15 -37.5t-25 -33t-34 -34l-34 -30
q-17 -16 -29 -32t-12 -39q0 -32 20 -51.5t54 -19.5q41 0 62.5 28.5t22.5 65.5l160 -18v0zM361 424q0 -20 -7.5 -37t-21 -30t-31.5 -20.5t-38 -7.5t-37.5 7.5t-31 20t-21.5 29.5t-8 37t7.5 37.5t21 30t31.5 20t38 7.5t37.5 -7t31 -20t21.5 -30t8 -37z" />
    <glyph glyph-name="Agrave" unicode="&#xc0;" horiz-adv-x="729" 
d="M363 519l-90 -243h178zM553 0l-55 139h-274l-52 -139h-186l297 708h166l294 -708h-190zM315 764l-146 144h166l104 -144h-124z" />
    <glyph glyph-name="Aacute" unicode="&#xc1;" horiz-adv-x="729" 
d="M363 519l-90 -243h178zM553 0l-55 139h-274l-52 -139h-186l297 708h166l294 -708h-190zM418 764h-124l104 144h166z" />
    <glyph glyph-name="Acircumflex" unicode="&#xc2;" horiz-adv-x="729" 
d="M363 519l-90 -243h178zM553 0l-55 139h-274l-52 -139h-186l297 708h166l294 -708h-190zM434 764l-68 81l-68 -81h-128l124 144h148l122 -144h-130z" />
    <glyph glyph-name="Atilde" unicode="&#xc3;" horiz-adv-x="729" 
d="M363 519l-90 -243h178zM553 0l-55 139h-274l-52 -139h-186l297 708h166l294 -708h-190zM551 900q-3 -26 -11 -50t-21.5 -42t-33.5 -29t-47 -11q-21 0 -41 6t-40 15q-20 11 -34.5 15.5t-28.5 4.5q-18 0 -27.5 -12t-14.5 -28h-72q3 26 11 49.5t21.5 41.5t33.5 28.5t47 10.5
q21 0 40.5 -5.5t39.5 -14.5q21 -10 36 -15t29 -5q19 0 28 11.5t14 29.5h71v0z" />
    <glyph glyph-name="Adieresis" unicode="&#xc4;" horiz-adv-x="729" 
d="M363 519l-90 -243h178zM553 0l-55 139h-274l-52 -139h-186l297 708h166l294 -708h-190zM341 850q0 -35 -24.5 -58.5t-59.5 -23.5t-59 24t-24 58q0 16 6.5 30.5t17.5 26t26.5 18t32.5 6.5q35 0 59.5 -23.5t24.5 -57.5zM558 850q0 -35 -24.5 -58.5t-58.5 -23.5
q-35 0 -59 24t-24 58q0 16 6.5 30.5t17.5 26t26 18t33 6.5q34 0 58.5 -23.5t24.5 -57.5z" />
    <glyph glyph-name="Aring" unicode="&#xc5;" horiz-adv-x="729" 
d="M363 519l-90 -243h178zM553 0l-55 139h-274l-52 -139h-186l297 708h166l294 -708h-190zM426 856q0 25 -17 41.5t-42 16.5q-26 0 -42.5 -17t-16.5 -42q0 -24 17 -40.5t42 -16.5t42 16.5t17 41.5zM476 856q0 -23 -8.5 -43t-23.5 -34t-35 -22t-42 -8q-23 0 -42.5 8t-34.5 22
t-23.5 33.5t-8.5 42.5q0 47 31.5 77.5t77.5 30.5q22 0 42 -8t35 -22.5t23.5 -34t8.5 -42.5z" />
    <glyph glyph-name="AE" unicode="&#xc6;" horiz-adv-x="1033" 
d="M514 563h-10l-153 -272h163v272zM514 0v153h-231l-88 -153h-199l414 708h565v-145h-298v-133h281v-137h-281v-147h316v-146h-479z" />
    <glyph glyph-name="Ccedilla" unicode="&#xc7;" horiz-adv-x="696" 
d="M531 -142q0 -29 -14 -48t-36 -30t-47.5 -15.5t-49.5 -4.5q-31 0 -63.5 7t-55.5 18l27 60q19 -9 41.5 -14t42.5 -5q16 0 33 6.5t17 26.5q0 18 -16 23.5t-31 5.5q-9 0 -20 -1.5t-20 -4.5l-31 29l55 74q-71 9 -130 39.5t-102 78.5t-67 112t-24 140q0 85 29.5 154t81.5 117.5
t122 74.5t151 26q75 0 147.5 -26.5t117.5 -77.5l-116 -116q-24 33 -63 49t-80 16q-45 0 -82.5 -16.5t-64.5 -45.5t-42 -68.5t-15 -86.5q0 -48 15 -88t41.5 -68.5t63.5 -44.5t81 -16q51 0 89 20t61 52l119 -112q-44 -51 -108 -81.5t-146 -34.5l-32 -42q5 1 9 1h9
q18 0 36.5 -3.5t33 -12.5t24 -25.5t9.5 -41.5z" />
    <glyph glyph-name="Egrave" unicode="&#xc8;" horiz-adv-x="607" 
d="M73 0v708h476v-145h-311v-133h294v-137h-294v-147h329v-146h-494zM282 764l-146 144h166l104 -144h-124z" />
    <glyph glyph-name="Eacute" unicode="&#xc9;" horiz-adv-x="607" 
d="M73 0v708h476v-145h-311v-133h294v-137h-294v-147h329v-146h-494zM357 764h-124l104 144h166z" />
    <glyph glyph-name="Ecircumflex" unicode="&#xca;" horiz-adv-x="607" 
d="M73 0v708h476v-145h-311v-133h294v-137h-294v-147h329v-146h-494zM382 764l-68 81l-68 -81h-128l124 144h148l122 -144h-130z" />
    <glyph glyph-name="Edieresis" unicode="&#xcb;" horiz-adv-x="607" 
d="M73 0v708h476v-145h-311v-133h294v-137h-294v-147h329v-146h-494zM290 850q0 -35 -24.5 -58.5t-59.5 -23.5t-59 24t-24 58q0 16 6.5 30.5t17.5 26t26.5 18t32.5 6.5q35 0 59.5 -23.5t24.5 -57.5zM507 850q0 -35 -24.5 -58.5t-58.5 -23.5q-35 0 -59 24t-24 58
q0 16 6.5 30.5t17.5 26t26 18t33 6.5q34 0 58.5 -23.5t24.5 -57.5z" />
    <glyph glyph-name="Igrave" unicode="&#xcc;" horiz-adv-x="318" 
d="M73 0v708h172v-708h-172zM121 764l-146 144h166l104 -144h-124z" />
    <glyph glyph-name="Iacute" unicode="&#xcd;" horiz-adv-x="318" 
d="M73 0v708h172v-708h-172zM197 764h-124l104 144h166z" />
    <glyph glyph-name="Icircumflex" unicode="&#xce;" horiz-adv-x="318" 
d="M73 0v708h172v-708h-172zM225 764l-68 81l-68 -81h-128l124 144h148l122 -144h-130z" />
    <glyph glyph-name="Idieresis" unicode="&#xcf;" horiz-adv-x="318" 
d="M73 0v708h172v-708h-172zM134 850q0 -35 -24.5 -58.5t-59.5 -23.5t-59 24t-24 58q0 16 6.5 30.5t17.5 26t26.5 18t32.5 6.5q35 0 59.5 -23.5t24.5 -57.5zM351 850q0 -35 -24.5 -58.5t-58.5 -23.5q-35 0 -59 24t-24 58q0 16 6.5 30.5t17.5 26t26 18t33 6.5
q34 0 58.5 -23.5t24.5 -57.5z" />
    <glyph glyph-name="Eth" unicode="&#xd0;" horiz-adv-x="774" 
d="M557 356q0 52 -16.5 90.5t-46.5 63.5t-71.5 37t-91.5 12h-90v-143h181v-107h-181v-159h74q52 0 96.5 11.5t76.5 36.5t50.5 64t18.5 94zM732 356q0 -92 -34 -159t-89 -111t-124 -65t-139 -21h-272v309h-61v107h61v292h273q75 0 145 -19.5t123 -62t85 -109.5t32 -161z" />
    <glyph glyph-name="Ntilde" unicode="&#xd1;" horiz-adv-x="790" 
d="M523 0l-285 463h-3l4 -463h-166v708h195l284 -462h3l-4 462h166v-708h-194zM584 900q-3 -26 -11 -50t-21.5 -42t-33.5 -29t-47 -11q-21 0 -41 6t-40 15q-20 11 -34.5 15.5t-28.5 4.5q-18 0 -27.5 -12t-14.5 -28h-72q3 26 11 49.5t21.5 41.5t33.5 28.5t47 10.5
q21 0 40.5 -5.5t39.5 -14.5q21 -10 36 -15t29 -5q19 0 28 11.5t14 29.5h71v0z" />
    <glyph glyph-name="Ograve" unicode="&#xd2;" horiz-adv-x="851" 
d="M628 357q0 46 -15 86t-41.5 68.5t-64 45t-82.5 16.5t-82 -16.5t-64 -45t-41.5 -68.5t-14.5 -86q0 -48 15 -88.5t41.5 -69.5t63.5 -45.5t82 -16.5t82 16.5t64 45.5t42 69.5t15 88.5zM811 357q0 -84 -29 -153.5t-80.5 -119t-122.5 -76.5t-154 -27t-153.5 27t-122 76.5
t-80.5 119t-29 153.5q0 85 29 153.5t80.5 116.5t122 74t153.5 26t154 -26t122.5 -74t80.5 -116.5t29 -153.5zM403 764l-146 144h166l104 -144h-124z" />
    <glyph glyph-name="Oacute" unicode="&#xd3;" horiz-adv-x="851" 
d="M628 357q0 46 -15 86t-41.5 68.5t-64 45t-82.5 16.5t-82 -16.5t-64 -45t-41.5 -68.5t-14.5 -86q0 -48 15 -88.5t41.5 -69.5t63.5 -45.5t82 -16.5t82 16.5t64 45.5t42 69.5t15 88.5zM811 357q0 -84 -29 -153.5t-80.5 -119t-122.5 -76.5t-154 -27t-153.5 27t-122 76.5
t-80.5 119t-29 153.5q0 85 29 153.5t80.5 116.5t122 74t153.5 26t154 -26t122.5 -74t80.5 -116.5t29 -153.5zM459 764h-124l104 144h166z" />
    <glyph glyph-name="Ocircumflex" unicode="&#xd4;" horiz-adv-x="851" 
d="M628 357q0 46 -15 86t-41.5 68.5t-64 45t-82.5 16.5t-82 -16.5t-64 -45t-41.5 -68.5t-14.5 -86q0 -48 15 -88.5t41.5 -69.5t63.5 -45.5t82 -16.5t82 16.5t64 45.5t42 69.5t15 88.5zM811 357q0 -84 -29 -153.5t-80.5 -119t-122.5 -76.5t-154 -27t-153.5 27t-122 76.5
t-80.5 119t-29 153.5q0 85 29 153.5t80.5 116.5t122 74t153.5 26t154 -26t122.5 -74t80.5 -116.5t29 -153.5zM493 764l-68 81l-68 -81h-128l124 144h148l122 -144h-130z" />
    <glyph glyph-name="Otilde" unicode="&#xd5;" horiz-adv-x="851" 
d="M628 357q0 46 -15 86t-41.5 68.5t-64 45t-82.5 16.5t-82 -16.5t-64 -45t-41.5 -68.5t-14.5 -86q0 -48 15 -88.5t41.5 -69.5t63.5 -45.5t82 -16.5t82 16.5t64 45.5t42 69.5t15 88.5zM811 357q0 -84 -29 -153.5t-80.5 -119t-122.5 -76.5t-154 -27t-153.5 27t-122 76.5
t-80.5 119t-29 153.5q0 85 29 153.5t80.5 116.5t122 74t153.5 26t154 -26t122.5 -74t80.5 -116.5t29 -153.5zM612 900q-3 -26 -11 -50t-21.5 -42t-33.5 -29t-47 -11q-21 0 -41 6t-40 15q-20 11 -34.5 15.5t-28.5 4.5q-18 0 -27.5 -12t-14.5 -28h-72q3 26 11 49.5t21.5 41.5
t33.5 28.5t47 10.5q21 0 40.5 -5.5t39.5 -14.5q21 -10 36 -15t29 -5q19 0 28 11.5t14 29.5h71v0z" />
    <glyph glyph-name="Odieresis" unicode="&#xd6;" horiz-adv-x="851" 
d="M628 357q0 46 -15 86t-41.5 68.5t-64 45t-82.5 16.5t-82 -16.5t-64 -45t-41.5 -68.5t-14.5 -86q0 -48 15 -88.5t41.5 -69.5t63.5 -45.5t82 -16.5t82 16.5t64 45.5t42 69.5t15 88.5zM811 357q0 -84 -29 -153.5t-80.5 -119t-122.5 -76.5t-154 -27t-153.5 27t-122 76.5
t-80.5 119t-29 153.5q0 85 29 153.5t80.5 116.5t122 74t153.5 26t154 -26t122.5 -74t80.5 -116.5t29 -153.5zM401 850q0 -35 -24.5 -58.5t-59.5 -23.5t-59 24t-24 58q0 16 6.5 30.5t17.5 26t26.5 18t32.5 6.5q35 0 59.5 -23.5t24.5 -57.5zM618 850q0 -35 -24.5 -58.5
t-58.5 -23.5q-35 0 -59 24t-24 58q0 16 6.5 30.5t17.5 26t26 18t33 6.5q34 0 58.5 -23.5t24.5 -57.5z" />
    <glyph glyph-name="multiply" unicode="&#xd7;" horiz-adv-x="666" 
d="M510 37l-177 173l-176 -173l-93 89l177 175l-178 174l94 91l177 -173l174 172l91 -87l-174 -173l179 -175z" />
    <glyph glyph-name="Oslash" unicode="&#xd8;" horiz-adv-x="851" 
d="M214 355q0 -73 31 -120q72 79 144.5 157.5t145.5 157.5q-20 14 -48.5 21.5t-61.5 7.5q-50 0 -89 -17.5t-66 -48t-41.5 -71.5t-14.5 -87zM635 356q0 38 -9 71t-29 59q-73 -80 -146 -159t-146 -159q46 -37 119 -37q48 0 87 17.5t66.5 47.5t42.5 71t15 89zM40 356
q0 85 29 153.5t80.5 116.5t122 74t153.5 26q126 0 219 -58q21 24 43 48t44 49q17 -15 33.5 -29.5t33.5 -29.5q-22 -23 -43 -46.5t-43 -46.5q48 -49 73.5 -113t25.5 -144q0 -84 -29.5 -152.5t-81 -117.5t-122.5 -76.5t-154 -27.5h-5q-66 0 -123 17.5t-101 51.5
q-23 -24 -44.5 -47.5t-44.5 -47.5q-17 14 -33.5 28.5t-33.5 28.5q23 24 44.5 48.5t44.5 48.5q-43 46 -65.5 109t-22.5 137z" />
    <glyph glyph-name="Ugrave" unicode="&#xd9;" horiz-adv-x="738" 
d="M673 267q0 -64 -21.5 -116.5t-61.5 -90t-96.5 -58.5t-125.5 -21q-70 0 -126 21t-95 58.5t-60 90t-21 116.5v441h170v-427q0 -29 7.5 -55t23 -46.5t41 -32.5t61.5 -12t61.5 12t41.5 32.5t23 46.5t7 55v427h171v-441v0zM346 764l-146 144h166l104 -144h-124z" />
    <glyph glyph-name="Uacute" unicode="&#xda;" horiz-adv-x="738" 
d="M673 267q0 -64 -21.5 -116.5t-61.5 -90t-96.5 -58.5t-125.5 -21q-70 0 -126 21t-95 58.5t-60 90t-21 116.5v441h170v-427q0 -29 7.5 -55t23 -46.5t41 -32.5t61.5 -12t61.5 12t41.5 32.5t23 46.5t7 55v427h171v-441v0zM397 764h-124l104 144h166z" />
    <glyph glyph-name="Ucircumflex" unicode="&#xdb;" horiz-adv-x="738" 
d="M673 267q0 -64 -21.5 -116.5t-61.5 -90t-96.5 -58.5t-125.5 -21q-70 0 -126 21t-95 58.5t-60 90t-21 116.5v441h170v-427q0 -29 7.5 -55t23 -46.5t41 -32.5t61.5 -12t61.5 12t41.5 32.5t23 46.5t7 55v427h171v-441v0zM437 764l-68 81l-68 -81h-128l124 144h148l122 -144
h-130z" />
    <glyph glyph-name="Udieresis" unicode="&#xdc;" horiz-adv-x="738" 
d="M673 267q0 -64 -21.5 -116.5t-61.5 -90t-96.5 -58.5t-125.5 -21q-70 0 -126 21t-95 58.5t-60 90t-21 116.5v441h170v-427q0 -29 7.5 -55t23 -46.5t41 -32.5t61.5 -12t61.5 12t41.5 32.5t23 46.5t7 55v427h171v-441v0zM345 850q0 -35 -24.5 -58.5t-59.5 -23.5t-59 24
t-24 58q0 16 6.5 30.5t17.5 26t26.5 18t32.5 6.5q35 0 59.5 -23.5t24.5 -57.5zM562 850q0 -35 -24.5 -58.5t-58.5 -23.5q-35 0 -59 24t-24 58q0 16 6.5 30.5t17.5 26t26 18t33 6.5q34 0 58.5 -23.5t24.5 -57.5z" />
    <glyph glyph-name="Yacute" unicode="&#xdd;" horiz-adv-x="669" 
d="M417 300v-300h-171v300l-266 408h207l151 -262l151 262h200zM397 764h-124l104 144h166z" />
    <glyph glyph-name="Thorn" unicode="&#xde;" horiz-adv-x="640" 
d="M439 368q0 26 -10 42t-27 25t-38.5 12t-44.5 3h-75v-168h72q24 0 46 4t39.5 14t27.5 26.5t10 41.5zM610 369q0 -62 -23 -104.5t-62 -68.5t-90 -38t-106 -12h-85v-146h-171v708h171v-121h89q58 0 108.5 -11.5t88 -37t59 -67t21.5 -102.5z" />
    <glyph glyph-name="germandbls" unicode="&#xdf;" horiz-adv-x="667" 
d="M277 140q17 -6 39 -9.5t34 -3.5q48 0 80.5 23.5t32.5 79.5q0 30 -10.5 51.5t-29 35.5t-43 20.5t-52.5 6.5h-21v129h22q10 0 24.5 2.5t28 11t23.5 24.5t10 43q0 32 -21 56.5t-63 24.5q-30 0 -50 -12t-31.5 -31.5t-16.5 -43.5t-5 -48v-500h-164v501q0 57 16 106t50 84.5
t85.5 56t122.5 20.5q50 0 94 -14t77 -39.5t52 -63t19 -83.5q0 -56 -30 -96t-74 -54v-1q69 -14 111 -65.5t42 -129.5q0 -55 -18.5 -98.5t-52 -74t-80.5 -46.5t-105 -16q-47 0 -96 12v141v0z" />
    <glyph glyph-name="agrave" unicode="&#xe0;" horiz-adv-x="566" 
d="M57 430q44 42 102.5 63t119.5 21q63 0 106.5 -15.5t70.5 -48t39.5 -82t12.5 -117.5v-251h-150v53h-3q-19 -31 -57.5 -48t-83.5 -17q-30 0 -62 8t-58.5 26t-43.5 48t-17 74q0 54 29.5 87t76 51t103.5 24t111 6v8q0 37 -26 54.5t-64 17.5q-35 0 -67.5 -15t-55.5 -36z
M358 217h-21q-27 0 -54.5 -2.5t-49 -9.5t-35.5 -20.5t-14 -35.5q0 -14 6.5 -24t16.5 -16t23 -8.5t25 -2.5q50 0 76.5 27.5t26.5 74.5v17zM258 572l-146 144h166l104 -144h-124z" />
    <glyph glyph-name="aacute" unicode="&#xe1;" horiz-adv-x="566" 
d="M57 430q44 42 102.5 63t119.5 21q63 0 106.5 -15.5t70.5 -48t39.5 -82t12.5 -117.5v-251h-150v53h-3q-19 -31 -57.5 -48t-83.5 -17q-30 0 -62 8t-58.5 26t-43.5 48t-17 74q0 54 29.5 87t76 51t103.5 24t111 6v8q0 37 -26 54.5t-64 17.5q-35 0 -67.5 -15t-55.5 -36z
M358 217h-21q-27 0 -54.5 -2.5t-49 -9.5t-35.5 -20.5t-14 -35.5q0 -14 6.5 -24t16.5 -16t23 -8.5t25 -2.5q50 0 76.5 27.5t26.5 74.5v17zM312 572h-124l104 144h166z" />
    <glyph glyph-name="acircumflex" unicode="&#xe2;" horiz-adv-x="566" 
d="M57 430q44 42 102.5 63t119.5 21q63 0 106.5 -15.5t70.5 -48t39.5 -82t12.5 -117.5v-251h-150v53h-3q-19 -31 -57.5 -48t-83.5 -17q-30 0 -62 8t-58.5 26t-43.5 48t-17 74q0 54 29.5 87t76 51t103.5 24t111 6v8q0 37 -26 54.5t-64 17.5q-35 0 -67.5 -15t-55.5 -36z
M358 217h-21q-27 0 -54.5 -2.5t-49 -9.5t-35.5 -20.5t-14 -35.5q0 -14 6.5 -24t16.5 -16t23 -8.5t25 -2.5q50 0 76.5 27.5t26.5 74.5v17zM352 572l-68 81l-68 -81h-128l124 144h148l122 -144h-130z" />
    <glyph glyph-name="atilde" unicode="&#xe3;" horiz-adv-x="566" 
d="M57 430q44 42 102.5 63t119.5 21q63 0 106.5 -15.5t70.5 -48t39.5 -82t12.5 -117.5v-251h-150v53h-3q-19 -31 -57.5 -48t-83.5 -17q-30 0 -62 8t-58.5 26t-43.5 48t-17 74q0 54 29.5 87t76 51t103.5 24t111 6v8q0 37 -26 54.5t-64 17.5q-35 0 -67.5 -15t-55.5 -36z
M358 217h-21q-27 0 -54.5 -2.5t-49 -9.5t-35.5 -20.5t-14 -35.5q0 -14 6.5 -24t16.5 -16t23 -8.5t25 -2.5q50 0 76.5 27.5t26.5 74.5v17zM473 708q-3 -26 -11 -50t-21.5 -42t-33.5 -29t-47 -11q-21 0 -41 6t-40 15q-20 11 -34.5 15.5t-28.5 4.5q-18 0 -27.5 -12t-14.5 -28
h-72q3 26 11 49.5t21.5 41.5t33.5 28.5t47 10.5q21 0 40.5 -5.5t39.5 -14.5q21 -10 36 -15t29 -5q19 0 28 11.5t14 29.5h71v0z" />
    <glyph glyph-name="adieresis" unicode="&#xe4;" horiz-adv-x="566" 
d="M57 430q44 42 102.5 63t119.5 21q63 0 106.5 -15.5t70.5 -48t39.5 -82t12.5 -117.5v-251h-150v53h-3q-19 -31 -57.5 -48t-83.5 -17q-30 0 -62 8t-58.5 26t-43.5 48t-17 74q0 54 29.5 87t76 51t103.5 24t111 6v8q0 37 -26 54.5t-64 17.5q-35 0 -67.5 -15t-55.5 -36z
M358 217h-21q-27 0 -54.5 -2.5t-49 -9.5t-35.5 -20.5t-14 -35.5q0 -14 6.5 -24t16.5 -16t23 -8.5t25 -2.5q50 0 76.5 27.5t26.5 74.5v17zM260 658q0 -35 -24.5 -58.5t-59.5 -23.5t-59 24t-24 58q0 16 6.5 30.5t17.5 26t26.5 18t32.5 6.5q35 0 59.5 -23.5t24.5 -57.5z
M477 658q0 -35 -24.5 -58.5t-58.5 -23.5q-35 0 -59 24t-24 58q0 16 6.5 30.5t17.5 26t26 18t33 6.5q34 0 58.5 -23.5t24.5 -57.5z" />
    <glyph glyph-name="aring" unicode="&#xe5;" horiz-adv-x="566" 
d="M57 430q44 42 102.5 63t119.5 21q63 0 106.5 -15.5t70.5 -48t39.5 -82t12.5 -117.5v-251h-150v53h-3q-19 -31 -57.5 -48t-83.5 -17q-30 0 -62 8t-58.5 26t-43.5 48t-17 74q0 54 29.5 87t76 51t103.5 24t111 6v8q0 37 -26 54.5t-64 17.5q-35 0 -67.5 -15t-55.5 -36z
M358 217h-21q-27 0 -54.5 -2.5t-49 -9.5t-35.5 -20.5t-14 -35.5q0 -14 6.5 -24t16.5 -16t23 -8.5t25 -2.5q50 0 76.5 27.5t26.5 74.5v17zM346 664q0 25 -17 41.5t-42 16.5q-26 0 -42.5 -17t-16.5 -42q0 -24 17 -40.5t42 -16.5t42 16.5t17 41.5zM396 664q0 -23 -8.5 -43
t-23.5 -34t-35 -22t-42 -8q-23 0 -42.5 8t-34.5 22t-23.5 33.5t-8.5 42.5q0 47 31.5 77.5t77.5 30.5q22 0 42 -8t35 -22.5t23.5 -34t8.5 -42.5z" />
    <glyph glyph-name="ae" unicode="&#xe6;" horiz-adv-x="899" 
d="M840 90q-35 -51 -92 -78.5t-134 -27.5q-59 0 -108.5 23.5t-78.5 66.5q-23 -38 -70.5 -62t-131.5 -24q-32 0 -66 8.5t-62 27t-46 48t-18 72.5q0 52 27 83.5t72 49t102.5 23t118.5 5.5v7q0 42 -24 61t-65 19q-35 0 -68 -15t-56 -36l-82 89q43 42 101.5 63t119.5 21
q62 0 101.5 -22t59.5 -51q27 32 70.5 52.5t100.5 20.5q55 0 101 -18.5t79 -53.5t51.5 -85t18.5 -114q0 -10 -0.5 -20t-1.5 -19h-360q5 -42 39 -68t79 -26q40 0 67 14.5t43 37.5zM709 306q0 39 -24.5 67t-73.5 28q-24 0 -44 -7.5t-35 -20.5t-24 -30.5t-10 -36.5h211zM358 207
h-21q-71 0 -112 -11t-41 -47q0 -14 6.5 -24t16.5 -16t23 -8.5t25 -2.5q50 0 76.5 25t26.5 68v16z" />
    <glyph glyph-name="ccedilla" unicode="&#xe7;" horiz-adv-x="503" 
d="M430 -142q0 -29 -14 -48t-36 -30t-47.5 -15.5t-49.5 -4.5q-31 0 -63.5 7t-55.5 18l27 60q19 -9 41.5 -14t42.5 -5q16 0 33 6.5t17 26.5q0 18 -16 23.5t-31 5.5q-9 0 -20 -1.5t-20 -4.5l-31 29l58 77q-49 7 -90.5 28.5t-71.5 55t-47 78t-17 99.5q0 61 21.5 110t59 83.5
t88.5 53t109 18.5q27 0 53.5 -5t51 -13.5t45 -21t35.5 -27.5l-95 -110q-14 18 -38 29t-49 11q-26 0 -47 -10.5t-36 -28t-23.5 -40.5t-8.5 -49t8 -49t23.5 -40.5t37 -27.5t48.5 -10q25 0 49.5 9.5t39.5 27.5l91 -111q-27 -26 -68.5 -42.5t-89.5 -20.5l-35 -45q5 1 9 1h9
q18 0 36.5 -3.5t33 -12.5t24 -25.5t9.5 -41.5z" />
    <glyph glyph-name="egrave" unicode="&#xe8;" horiz-adv-x="596" 
d="M558 243v-20t-1 -19h-361q2 -21 12.5 -38t27 -29.5t37 -19.5t42.5 -7q39 0 66 14.5t44 37.5l114 -72q-35 -51 -92.5 -78.5t-133.5 -27.5q-56 0 -106 17.5t-87.5 51t-59 82.5t-21.5 112q0 61 21 110.5t57 84t85 53.5t106 19q55 0 101 -18.5t79 -53.5t51.5 -85t18.5 -114z
M407 306q0 39 -24.5 67t-73.5 28q-24 0 -44 -7.5t-35 -20.5t-24 -30.5t-10 -36.5h211zM278 572l-146 144h166l104 -144h-124z" />
    <glyph glyph-name="eacute" unicode="&#xe9;" horiz-adv-x="596" 
d="M558 243v-20t-1 -19h-361q2 -21 12.5 -38t27 -29.5t37 -19.5t42.5 -7q39 0 66 14.5t44 37.5l114 -72q-35 -51 -92.5 -78.5t-133.5 -27.5q-56 0 -106 17.5t-87.5 51t-59 82.5t-21.5 112q0 61 21 110.5t57 84t85 53.5t106 19q55 0 101 -18.5t79 -53.5t51.5 -85t18.5 -114z
M407 306q0 39 -24.5 67t-73.5 28q-24 0 -44 -7.5t-35 -20.5t-24 -30.5t-10 -36.5h211zM331 572h-124l104 144h166z" />
    <glyph glyph-name="ecircumflex" unicode="&#xea;" horiz-adv-x="596" 
d="M558 243v-20t-1 -19h-361q2 -21 12.5 -38t27 -29.5t37 -19.5t42.5 -7q39 0 66 14.5t44 37.5l114 -72q-35 -51 -92.5 -78.5t-133.5 -27.5q-56 0 -106 17.5t-87.5 51t-59 82.5t-21.5 112q0 61 21 110.5t57 84t85 53.5t106 19q55 0 101 -18.5t79 -53.5t51.5 -85t18.5 -114z
M407 306q0 39 -24.5 67t-73.5 28q-24 0 -44 -7.5t-35 -20.5t-24 -30.5t-10 -36.5h211zM381 572l-68 81l-68 -81h-128l124 144h148l122 -144h-130z" />
    <glyph glyph-name="edieresis" unicode="&#xeb;" horiz-adv-x="596" 
d="M558 243v-20t-1 -19h-361q2 -21 12.5 -38t27 -29.5t37 -19.5t42.5 -7q39 0 66 14.5t44 37.5l114 -72q-35 -51 -92.5 -78.5t-133.5 -27.5q-56 0 -106 17.5t-87.5 51t-59 82.5t-21.5 112q0 61 21 110.5t57 84t85 53.5t106 19q55 0 101 -18.5t79 -53.5t51.5 -85t18.5 -114z
M407 306q0 39 -24.5 67t-73.5 28q-24 0 -44 -7.5t-35 -20.5t-24 -30.5t-10 -36.5h211zM288 658q0 -35 -24.5 -58.5t-59.5 -23.5t-59 24t-24 58q0 16 6.5 30.5t17.5 26t26.5 18t32.5 6.5q35 0 59.5 -23.5t24.5 -57.5zM505 658q0 -35 -24.5 -58.5t-58.5 -23.5q-35 0 -59 24
t-24 58q0 16 6.5 30.5t17.5 26t26 18t33 6.5q34 0 58.5 -23.5t24.5 -57.5z" />
    <glyph glyph-name="igrave" unicode="&#xec;" horiz-adv-x="296" 
d="M66 0v498h164v-498h-164zM104 572l-146 144h166l104 -144h-124z" />
    <glyph glyph-name="iacute" unicode="&#xed;" horiz-adv-x="296" 
d="M66 0v498h164v-498h-164zM191 572h-124l104 144h166z" />
    <glyph glyph-name="icircumflex" unicode="&#xee;" horiz-adv-x="296" 
d="M66 0v498h164v-498h-164zM218 572l-68 81l-68 -81h-128l124 144h148l122 -144h-130z" />
    <glyph glyph-name="idieresis" unicode="&#xef;" horiz-adv-x="296" 
d="M66 0v498h164v-498h-164zM125 658q0 -35 -24.5 -58.5t-59.5 -23.5t-59 24t-24 58q0 16 6.5 30.5t17.5 26t26.5 18t32.5 6.5q35 0 59.5 -23.5t24.5 -57.5zM342 658q0 -35 -24.5 -58.5t-58.5 -23.5q-35 0 -59 24t-24 58q0 16 6.5 30.5t17.5 26t26 18t33 6.5
q34 0 58.5 -23.5t24.5 -57.5z" />
    <glyph glyph-name="eth" unicode="&#xf0;" horiz-adv-x="632" 
d="M435 250q0 24 -8 46.5t-23 40.5t-37.5 29t-51.5 11t-51 -11t-37 -29t-22.5 -40.5t-7.5 -46.5t8 -47t23 -41t37 -29t51 -11t51 11t37 29t23 41t8 47zM593 282q0 -69 -20 -124t-56.5 -94t-87.5 -59.5t-114 -20.5q-57 0 -107.5 18.5t-88 53t-59 84t-21.5 110.5
q0 60 20.5 108t56.5 81.5t84 52t103 18.5q23 0 43.5 -5.5t38.5 -19.5l2 1q-21 31 -45.5 61t-52.5 53l-108 -48l-80 70l109 47q-12 12 -33 28.5t-42 30.5l127 71q28 -21 50 -40.5t36 -31.5l113 50l87 -71l-121 -52q36 -39 66 -81t52.5 -88t35 -97t12.5 -106z" />
    <glyph glyph-name="ntilde" unicode="&#xf1;" horiz-adv-x="616" 
d="M391 0v272q0 21 -3.5 40t-11.5 33.5t-22.5 23t-36.5 8.5t-38.5 -8.5t-27.5 -23.5t-16.5 -34.5t-5.5 -40.5v-270h-165v498h159v-69h2q9 16 23.5 31.5t34 26.5t42.5 18t49 7q50 0 85 -18t56.5 -46.5t31 -65.5t9.5 -74v-308h-165zM497 708q-3 -26 -11 -50t-21.5 -42
t-33.5 -29t-47 -11q-21 0 -41 6t-40 15q-20 11 -34.5 15.5t-28.5 4.5q-18 0 -27.5 -12t-14.5 -28h-72q3 26 11 49.5t21.5 41.5t33.5 28.5t47 10.5q21 0 40.5 -5.5t39.5 -14.5q21 -10 36 -15t29 -5q19 0 28 11.5t14 29.5h71v0z" />
    <glyph glyph-name="ograve" unicode="&#xf2;" horiz-adv-x="632" 
d="M434 251q0 24 -8 47t-23 40.5t-37 28.5t-51 11t-51 -11t-36.5 -28.5t-22 -40.5t-7.5 -47t7.5 -47t22.5 -41.5t37 -29.5t51 -11t51 11t37 29.5t22.5 41.5t7.5 47zM592 251q0 -61 -22 -110.5t-60 -84t-88 -53.5t-107 -19q-56 0 -106.5 19t-88 53.5t-59.5 84t-22 110.5
t22 110t59.5 83t88 52t106.5 18q57 0 107 -18t88 -52t60 -83t22 -110zM273 572l-146 144h166l104 -144h-124z" />
    <glyph glyph-name="oacute" unicode="&#xf3;" horiz-adv-x="632" 
d="M434 251q0 24 -8 47t-23 40.5t-37 28.5t-51 11t-51 -11t-36.5 -28.5t-22 -40.5t-7.5 -47t7.5 -47t22.5 -41.5t37 -29.5t51 -11t51 11t37 29.5t22.5 41.5t7.5 47zM592 251q0 -61 -22 -110.5t-60 -84t-88 -53.5t-107 -19q-56 0 -106.5 19t-88 53.5t-59.5 84t-22 110.5
t22 110t59.5 83t88 52t106.5 18q57 0 107 -18t88 -52t60 -83t22 -110zM354 572h-124l104 144h166z" />
    <glyph glyph-name="ocircumflex" unicode="&#xf4;" horiz-adv-x="632" 
d="M381 576l-66 79l-66 -79h-125l121 140h144l118 -140h-126zM434 251q0 24 -8 47t-23 40.5t-37 28.5t-51 11t-51 -11t-36.5 -28.5t-22 -40.5t-7.5 -47t7.5 -47t22.5 -41.5t37 -29.5t51 -11t51 11t37 29.5t22.5 41.5t7.5 47zM592 251q0 -61 -22 -110.5t-60 -84t-88 -53.5
t-107 -19q-56 0 -106.5 19t-88 53.5t-59.5 84t-22 110.5t22 110t59.5 83t88 52t106.5 18q57 0 107 -18t88 -52t60 -83t22 -110z" />
    <glyph glyph-name="otilde" unicode="&#xf5;" horiz-adv-x="632" 
d="M434 251q0 24 -8 47t-23 40.5t-37 28.5t-51 11t-51 -11t-36.5 -28.5t-22 -40.5t-7.5 -47t7.5 -47t22.5 -41.5t37 -29.5t51 -11t51 11t37 29.5t22.5 41.5t7.5 47zM592 251q0 -61 -22 -110.5t-60 -84t-88 -53.5t-107 -19q-56 0 -106.5 19t-88 53.5t-59.5 84t-22 110.5
t22 110t59.5 83t88 52t106.5 18q57 0 107 -18t88 -52t60 -83t22 -110zM501 708q-3 -26 -11 -50t-21.5 -42t-33.5 -29t-47 -11q-21 0 -41 6t-40 15q-20 11 -34.5 15.5t-28.5 4.5q-18 0 -27.5 -12t-14.5 -28h-72q3 26 11 49.5t21.5 41.5t33.5 28.5t47 10.5q21 0 40.5 -5.5
t39.5 -14.5q21 -10 36 -15t29 -5q19 0 28 11.5t14 29.5h71v0z" />
    <glyph glyph-name="odieresis" unicode="&#xf6;" horiz-adv-x="632" 
d="M434 251q0 24 -8 47t-23 40.5t-37 28.5t-51 11t-51 -11t-36.5 -28.5t-22 -40.5t-7.5 -47t7.5 -47t22.5 -41.5t37 -29.5t51 -11t51 11t37 29.5t22.5 41.5t7.5 47zM592 251q0 -61 -22 -110.5t-60 -84t-88 -53.5t-107 -19q-56 0 -106.5 19t-88 53.5t-59.5 84t-22 110.5
t22 110t59.5 83t88 52t106.5 18q57 0 107 -18t88 -52t60 -83t22 -110zM290 658q0 -35 -24.5 -58.5t-59.5 -23.5t-59 24t-24 58q0 16 6.5 30.5t17.5 26t26.5 18t32.5 6.5q35 0 59.5 -23.5t24.5 -57.5zM507 658q0 -35 -24.5 -58.5t-58.5 -23.5q-35 0 -59 24t-24 58
q0 16 6.5 30.5t17.5 26t26 18t33 6.5q34 0 58.5 -23.5t24.5 -57.5z" />
    <glyph glyph-name="divide" unicode="&#xf7;" horiz-adv-x="666" 
d="M79 240v127h507v-127h-507zM246 117q0 17 7 32.5t19 27t27.5 18t33.5 6.5t33.5 -6.5t27 -18t18.5 -27t7 -32.5t-7 -32.5t-18.5 -27t-27 -18.5t-33.5 -7t-33.5 7t-27.5 18.5t-19 27t-7 32.5zM246 489q0 17 7 32.5t19 27t27.5 18t33.5 6.5t33.5 -6.5t27 -18t18.5 -27
t7 -32.5q0 -18 -7 -33.5t-18.5 -27t-27 -18t-33.5 -6.5t-33.5 6.5t-27.5 18t-19 27t-7 33.5z" />
    <glyph glyph-name="oslash" unicode="&#xf8;" horiz-adv-x="632" 
d="M436 248q0 16 -3 31.5t-10 26.5l-167 -168q11 -10 27.5 -15t33.5 -5q29 0 51.5 11t37.5 29t22.5 41.5t7.5 48.5zM372 365q-11 8 -26.5 13.5t-32.5 5.5q-29 0 -51.5 -11t-38 -29t-23.5 -41.5t-8 -48.5q0 -15 3.5 -31t10.5 -26l166 168v0zM537 411q55 -64 55 -161
q0 -60 -22 -109t-59.5 -84t-88 -54t-107.5 -19q-45 0 -85 12t-72 35l-75 -74l-59 58l72 71q-26 30 -41.5 72t-15.5 92q0 60 21.5 109t59 83.5t88 53.5t107.5 19q94 0 160 -49l72 72l60 -58z" />
    <glyph glyph-name="ugrave" unicode="&#xf9;" horiz-adv-x="614" 
d="M392 0v69h-2q-9 -17 -23.5 -32t-34 -26t-43 -18t-49.5 -7q-50 0 -84.5 18t-56 46.5t-31 65t-9.5 74.5v308h165v-270q0 -21 3 -40t11.5 -34t22.5 -23.5t37 -8.5q43 0 65.5 32t22.5 75v269h164v-498h-158zM284 572l-146 144h166l104 -144h-124z" />
    <glyph glyph-name="uacute" unicode="&#xfa;" horiz-adv-x="614" 
d="M392 0v69h-2q-9 -17 -23.5 -32t-34 -26t-43 -18t-49.5 -7q-50 0 -84.5 18t-56 46.5t-31 65t-9.5 74.5v308h165v-270q0 -21 3 -40t11.5 -34t22.5 -23.5t37 -8.5q43 0 65.5 32t22.5 75v269h164v-498h-158zM343 572h-124l104 144h166z" />
    <glyph glyph-name="ucircumflex" unicode="&#xfb;" horiz-adv-x="614" 
d="M392 0v69h-2q-9 -17 -23.5 -32t-34 -26t-43 -18t-49.5 -7q-50 0 -84.5 18t-56 46.5t-31 65t-9.5 74.5v308h165v-270q0 -21 3 -40t11.5 -34t22.5 -23.5t37 -8.5q43 0 65.5 32t22.5 75v269h164v-498h-158zM375 572l-68 81l-68 -81h-128l124 144h148l122 -144h-130z" />
    <glyph glyph-name="udieresis" unicode="&#xfc;" horiz-adv-x="614" 
d="M392 0v69h-2q-9 -17 -23.5 -32t-34 -26t-43 -18t-49.5 -7q-50 0 -84.5 18t-56 46.5t-31 65t-9.5 74.5v308h165v-270q0 -21 3 -40t11.5 -34t22.5 -23.5t37 -8.5q43 0 65.5 32t22.5 75v269h164v-498h-158zM282 658q0 -35 -24.5 -58.5t-59.5 -23.5t-59 24t-24 58
q0 16 6.5 30.5t17.5 26t26.5 18t32.5 6.5q35 0 59.5 -23.5t24.5 -57.5zM499 658q0 -35 -24.5 -58.5t-58.5 -23.5q-35 0 -59 24t-24 58q0 16 6.5 30.5t17.5 26t26 18t33 6.5q34 0 58.5 -23.5t24.5 -57.5z" />
    <glyph glyph-name="yacute" unicode="&#xfd;" horiz-adv-x="567" 
d="M345 -75q-15 -39 -33.5 -69.5t-44 -52t-60 -32.5t-81.5 -11q-23 0 -47.5 3t-42.5 8l18 138q12 -4 26.5 -6.5t26.5 -2.5q38 0 55 17.5t29 49.5l16 41l-208 490h182l111 -320h3l99 320h174zM342 572h-124l104 144h166z" />
    <glyph glyph-name="thorn" unicode="&#xfe;" horiz-adv-x="659" 
d="M461 251q0 24 -7.5 47t-22.5 40.5t-37 28.5t-51 11q-28 0 -50 -11t-37.5 -29t-24 -41t-8.5 -47t8.5 -47t24 -41t37.5 -29t50 -11q29 0 51 11t37 29t22.5 41.5t7.5 47.5zM619 251q0 -52 -16 -100t-46 -84.5t-74 -58.5t-101 -22q-46 0 -87.5 19t-63.5 51h-2v-296h-163v996
h163v-311h3q21 25 58.5 46t93.5 21q54 0 97.5 -21t74 -57t47 -83.5t16.5 -99.5z" />
    <glyph glyph-name="ydieresis" unicode="&#xff;" horiz-adv-x="567" 
d="M345 -75q-15 -39 -33.5 -69.5t-44 -52t-60 -32.5t-81.5 -11q-23 0 -47.5 3t-42.5 8l18 138q12 -4 26.5 -6.5t26.5 -2.5q38 0 55 17.5t29 49.5l16 41l-208 490h182l111 -320h3l99 320h174zM268 658q0 -35 -24.5 -58.5t-59.5 -23.5t-59 24t-24 58q0 16 6.5 30.5t17.5 26
t26.5 18t32.5 6.5q35 0 59.5 -23.5t24.5 -57.5zM485 658q0 -35 -24.5 -58.5t-58.5 -23.5q-35 0 -59 24t-24 58q0 16 6.5 30.5t17.5 26t26 18t33 6.5q34 0 58.5 -23.5t24.5 -57.5z" />
    <glyph glyph-name="Amacron" unicode="&#x100;" horiz-adv-x="729" 
d="M363 519l-90 -243h178zM553 0l-55 139h-274l-52 -139h-186l297 708h166l294 -708h-190zM196 793v86h336v-86h-336z" />
    <glyph glyph-name="amacron" unicode="&#x101;" horiz-adv-x="566" 
d="M57 430q44 42 102.5 63t119.5 21q63 0 106.5 -15.5t70.5 -48t39.5 -82t12.5 -117.5v-251h-150v53h-3q-19 -31 -57.5 -48t-83.5 -17q-30 0 -62 8t-58.5 26t-43.5 48t-17 74q0 54 29.5 87t76 51t103.5 24t111 6v8q0 37 -26 54.5t-64 17.5q-35 0 -67.5 -15t-55.5 -36z
M358 217h-21q-27 0 -54.5 -2.5t-49 -9.5t-35.5 -20.5t-14 -35.5q0 -14 6.5 -24t16.5 -16t23 -8.5t25 -2.5q50 0 76.5 27.5t26.5 74.5v17zM118 601v86h336v-86h-336z" />
    <glyph glyph-name="Abreve" unicode="&#x102;" horiz-adv-x="729" 
d="M363 519l-90 -243h178zM553 0l-55 139h-274l-52 -139h-186l297 708h166l294 -708h-190zM537 908q-3 -39 -18 -66.5t-38 -44.5t-53.5 -25t-65.5 -8q-34 0 -64.5 7.5t-53.5 25t-37.5 45t-17.5 66.5h84q3 -16 11.5 -26.5t21 -17t27.5 -9t30 -2.5q34 0 58.5 10t31.5 45h84v0z
" />
    <glyph glyph-name="abreve" unicode="&#x103;" horiz-adv-x="566" 
d="M57 430q44 42 102.5 63t119.5 21q63 0 106.5 -15.5t70.5 -48t39.5 -82t12.5 -117.5v-251h-150v53h-3q-19 -31 -57.5 -48t-83.5 -17q-30 0 -62 8t-58.5 26t-43.5 48t-17 74q0 54 29.5 87t76 51t103.5 24t111 6v8q0 37 -26 54.5t-64 17.5q-35 0 -67.5 -15t-55.5 -36z
M358 217h-21q-27 0 -54.5 -2.5t-49 -9.5t-35.5 -20.5t-14 -35.5q0 -14 6.5 -24t16.5 -16t23 -8.5t25 -2.5q50 0 76.5 27.5t26.5 74.5v17zM460 716q-3 -39 -18 -66.5t-38 -44.5t-53.5 -25t-65.5 -8q-34 0 -64.5 7.5t-53.5 25t-37.5 45t-17.5 66.5h84q6 -29 32 -44
q13 -6 28 -8.5t30 -2.5q34 0 58.5 10t31.5 45h84v0z" />
    <glyph glyph-name="Aogonek" unicode="&#x104;" horiz-adv-x="729" 
d="M363 519l-90 -243h178zM680 -196q-23 -17 -53 -28.5t-62 -11.5q-20 0 -40.5 5t-36.5 16t-26 28.5t-10 41.5q0 21 9.5 41.5t24 39.5t32.5 35t36 29h-1l-55 139h-274l-52 -139h-186l297 708h166l294 -708h-97q-38 -30 -64 -61t-26 -57q0 -16 10.5 -26t26.5 -10q14 0 28 5.5
t27 14.5l32 -62v0z" />
    <glyph glyph-name="aogonek" unicode="&#x105;" horiz-adv-x="566" 
d="M358 217h-21q-27 0 -54.5 -2.5t-49 -9.5t-35.5 -20.5t-14 -35.5q0 -14 6.5 -24t16.5 -16t23 -8.5t25 -2.5q50 0 76.5 27.5t26.5 74.5v17zM480 -196q-23 -17 -53 -28.5t-62 -11.5q-20 0 -40.5 5t-36.5 16t-26 28.5t-10 41.5q0 22 10 43t25 40t34 35.5t37 28.5v51h-3
q-19 -31 -57.5 -48t-83.5 -17q-30 0 -62 8t-58.5 26t-43.5 48t-17 74q0 54 29.5 87t76 51t103.5 24t111 6v8q0 37 -26 54.5t-64 17.5q-35 0 -67.5 -15t-55.5 -36l-83 89q44 42 102.5 63t119.5 21q63 0 106.5 -15.5t70.5 -48t39.5 -82t12.5 -117.5v-251h-62q-38 -30 -64 -61
t-26 -57q0 -16 10.5 -26t26.5 -10q14 0 28 5.5t27 14.5l32 -62v0z" />
    <glyph glyph-name="Cacute" unicode="&#x106;" horiz-adv-x="696" 
d="M696 98q-47 -54 -116 -85.5t-159 -31.5q-82 0 -151.5 27t-120.5 76.5t-80 118.5t-29 152q0 85 29.5 154t81.5 117.5t122 74.5t151 26q75 0 147.5 -26.5t117.5 -77.5l-116 -116q-24 33 -63 49t-80 16q-45 0 -82.5 -16.5t-64.5 -45.5t-42 -68.5t-15 -86.5q0 -48 15 -88
t41.5 -68.5t63.5 -44.5t81 -16q51 0 89 20t61 52l119 -112v0zM453 764h-124l104 144h166z" />
    <glyph glyph-name="cacute" unicode="&#x107;" horiz-adv-x="503" 
d="M407 337q-14 18 -38 29t-49 11q-26 0 -47 -10.5t-36 -28t-23.5 -40.5t-8.5 -49t8 -49t23.5 -40.5t37 -27.5t48.5 -10q25 0 49.5 9.5t39.5 27.5l91 -111q-31 -30 -80 -47t-104 -17q-59 0 -110 18t-88.5 52.5t-59 83.5t-21.5 111q0 61 21.5 110t59 83.5t88.5 53t109 18.5
q27 0 53.5 -5t51 -13.5t45 -21t35.5 -27.5zM357 572h-124l104 144h166z" />
    <glyph glyph-name="Ccircumflex" unicode="&#x108;" horiz-adv-x="696" 
d="M696 98q-47 -54 -116 -85.5t-159 -31.5q-82 0 -151.5 27t-120.5 76.5t-80 118.5t-29 152q0 85 29.5 154t81.5 117.5t122 74.5t151 26q75 0 147.5 -26.5t117.5 -77.5l-116 -116q-24 33 -63 49t-80 16q-45 0 -82.5 -16.5t-64.5 -45.5t-42 -68.5t-15 -86.5q0 -48 15 -88
t41.5 -68.5t63.5 -44.5t81 -16q51 0 89 20t61 52l119 -112v0zM495 764l-68 81l-68 -81h-128l124 144h148l122 -144h-130z" />
    <glyph glyph-name="ccircumflex" unicode="&#x109;" horiz-adv-x="503" 
d="M407 337q-14 18 -38 29t-49 11q-26 0 -47 -10.5t-36 -28t-23.5 -40.5t-8.5 -49t8 -49t23.5 -40.5t37 -27.5t48.5 -10q25 0 49.5 9.5t39.5 27.5l91 -111q-31 -30 -80 -47t-104 -17q-59 0 -110 18t-88.5 52.5t-59 83.5t-21.5 111q0 61 21.5 110t59 83.5t88.5 53t109 18.5
q27 0 53.5 -5t51 -13.5t45 -21t35.5 -27.5zM386 572l-68 81l-68 -81h-128l124 144h148l122 -144h-130z" />
    <glyph glyph-name="Cdotaccent" unicode="&#x10a;" horiz-adv-x="696" 
d="M696 98q-47 -54 -116 -85.5t-159 -31.5q-82 0 -151.5 27t-120.5 76.5t-80 118.5t-29 152q0 85 29.5 154t81.5 117.5t122 74.5t151 26q75 0 147.5 -26.5t117.5 -77.5l-116 -116q-24 33 -63 49t-80 16q-45 0 -82.5 -16.5t-64.5 -45.5t-42 -68.5t-15 -86.5q0 -48 15 -88
t41.5 -68.5t63.5 -44.5t81 -16q51 0 89 20t61 52l119 -112v0zM515 849q0 -36 -26 -60.5t-64 -24.5t-63.5 25t-25.5 60t25.5 60.5t63.5 25.5t64 -25t26 -61z" />
    <glyph glyph-name="cdotaccent" unicode="&#x10b;" horiz-adv-x="503" 
d="M407 337q-14 18 -38 29t-49 11q-26 0 -47 -10.5t-36 -28t-23.5 -40.5t-8.5 -49t8 -49t23.5 -40.5t37 -27.5t48.5 -10q25 0 49.5 9.5t39.5 27.5l91 -111q-31 -30 -80 -47t-104 -17q-59 0 -110 18t-88.5 52.5t-59 83.5t-21.5 111q0 61 21.5 110t59 83.5t88.5 53t109 18.5
q27 0 53.5 -5t51 -13.5t45 -21t35.5 -27.5zM410 657q0 -36 -26 -60.5t-64 -24.5t-63.5 25t-25.5 60t25.5 60.5t63.5 25.5t64 -25t26 -61z" />
    <glyph glyph-name="Ccaron" unicode="&#x10c;" horiz-adv-x="696" 
d="M696 98q-47 -54 -116 -85.5t-159 -31.5q-82 0 -151.5 27t-120.5 76.5t-80 118.5t-29 152q0 85 29.5 154t81.5 117.5t122 74.5t151 26q75 0 147.5 -26.5t117.5 -77.5l-116 -116q-24 33 -63 49t-80 16q-45 0 -82.5 -16.5t-64.5 -45.5t-42 -68.5t-15 -86.5q0 -48 15 -88
t41.5 -68.5t63.5 -44.5t81 -16q51 0 89 20t61 52l119 -112v0zM501 764h-147l-124 144h130l68 -81l68 81h128z" />
    <glyph glyph-name="ccaron" unicode="&#x10d;" horiz-adv-x="503" 
d="M407 337q-14 18 -38 29t-49 11q-26 0 -47 -10.5t-36 -28t-23.5 -40.5t-8.5 -49t8 -49t23.5 -40.5t37 -27.5t48.5 -10q25 0 49.5 9.5t39.5 27.5l91 -111q-31 -30 -80 -47t-104 -17q-59 0 -110 18t-88.5 52.5t-59 83.5t-21.5 111q0 61 21.5 110t59 83.5t88.5 53t109 18.5
q27 0 53.5 -5t51 -13.5t45 -21t35.5 -27.5zM391 572h-147l-124 144h130l68 -81l68 81h128z" />
    <glyph glyph-name="Dcaron" unicode="&#x10e;" horiz-adv-x="774" 
d="M556 356q0 60 -19.5 99.5t-52 63t-74 33.5t-85.5 10h-85v-414h81q46 0 88.5 10.5t75 34.5t52 64t19.5 99zM734 356q0 -93 -34.5 -160.5t-91 -111t-127.5 -64t-144 -20.5h-264v708h256q75 0 148 -17.5t130 -58t92 -108.5t35 -168zM431 764h-147l-124 144h130l68 -81l68 81
h128z" />
    <glyph glyph-name="dcaron" unicode="&#x10f;" horiz-adv-x="658" 
d="M435 250q0 24 -8.5 47t-24 41t-37.5 29t-50 11q-29 0 -51 -11t-37 -28.5t-22.5 -40.5t-7.5 -47t7.5 -47.5t22.5 -41.5t37 -29t51 -11q28 0 50 11t37.5 29t24 41t8.5 47zM441 0v65h-2q-24 -38 -68.5 -58.5t-94.5 -20.5q-56 0 -100 22t-74.5 58.5t-46.5 84.5t-16 100
t16.5 99.5t47 83.5t74 57t97.5 21q55 0 93 -21t59 -46h2v311h164v-756h-151zM746 513h-126l67 195h145z" />
    <glyph glyph-name="Dcroat" unicode="&#x110;" horiz-adv-x="774" 
d="M557 356q0 52 -16.5 90.5t-46.5 63.5t-71.5 37t-91.5 12h-90v-143h181v-107h-181v-159h74q52 0 96.5 11.5t76.5 36.5t50.5 64t18.5 94zM732 356q0 -92 -34 -159t-89 -111t-124 -65t-139 -21h-272v309h-61v107h61v292h273q75 0 145 -19.5t123 -62t85 -109.5t32 -161z" />
    <glyph glyph-name="dcroat" unicode="&#x111;" horiz-adv-x="658" 
d="M435 250q0 24 -8.5 47t-24 41t-37.5 29t-50 11q-29 0 -51 -11t-37 -28.5t-22.5 -40.5t-7.5 -47t7.5 -47.5t22.5 -41.5t37 -29t51 -11q28 0 50 11t37.5 29t24 41t8.5 47zM441 0v65h-2q-24 -38 -68.5 -58.5t-94.5 -20.5q-56 0 -100 22t-74.5 58.5t-46.5 84.5t-16 100
t16.5 99.5t47 83.5t74 57t97.5 21q55 0 93 -21t59 -46h2v125h-149v89h149v97h164v-97h46v-89h-46v-570h-151z" />
    <glyph glyph-name="Emacron" unicode="&#x112;" horiz-adv-x="607" 
d="M73 0v708h476v-145h-311v-133h294v-137h-294v-147h329v-146h-494zM142 793v86h336v-86h-336z" />
    <glyph glyph-name="emacron" unicode="&#x113;" horiz-adv-x="596" 
d="M558 243v-20t-1 -19h-361q2 -21 12.5 -38t27 -29.5t37 -19.5t42.5 -7q39 0 66 14.5t44 37.5l114 -72q-35 -51 -92.5 -78.5t-133.5 -27.5q-56 0 -106 17.5t-87.5 51t-59 82.5t-21.5 112q0 61 21 110.5t57 84t85 53.5t106 19q55 0 101 -18.5t79 -53.5t51.5 -85t18.5 -114z
M407 306q0 39 -24.5 67t-73.5 28q-24 0 -44 -7.5t-35 -20.5t-24 -30.5t-10 -36.5h211zM144 601v86h336v-86h-336z" />
    <glyph glyph-name="Ebreve" unicode="&#x114;" horiz-adv-x="607" 
d="M73 0v708h476v-145h-311v-133h294v-137h-294v-147h329v-146h-494zM484 908q-3 -39 -18 -66.5t-38 -44.5t-53.5 -25t-65.5 -8q-34 0 -64.5 7.5t-53.5 25t-37.5 45t-17.5 66.5h84q3 -16 11.5 -26.5t21 -17t27.5 -9t30 -2.5q34 0 58.5 10t31.5 45h84v0z" />
    <glyph glyph-name="ebreve" unicode="&#x115;" horiz-adv-x="596" 
d="M558 243v-20t-1 -19h-361q2 -21 12.5 -38t27 -29.5t37 -19.5t42.5 -7q39 0 66 14.5t44 37.5l114 -72q-35 -51 -92.5 -78.5t-133.5 -27.5q-56 0 -106 17.5t-87.5 51t-59 82.5t-21.5 112q0 61 21 110.5t57 84t85 53.5t106 19q55 0 101 -18.5t79 -53.5t51.5 -85t18.5 -114z
M407 306q0 39 -24.5 67t-73.5 28q-24 0 -44 -7.5t-35 -20.5t-24 -30.5t-10 -36.5h211zM486 716q-3 -39 -18 -66.5t-38 -44.5t-53.5 -25t-65.5 -8q-34 0 -64.5 7.5t-53.5 25t-37.5 45t-17.5 66.5h84q6 -29 32 -44q13 -6 28 -8.5t30 -2.5q34 0 58.5 10t31.5 45h84v0z" />
    <glyph glyph-name="Edotaccent" unicode="&#x116;" horiz-adv-x="607" 
d="M73 0v708h476v-145h-311v-133h294v-137h-294v-147h329v-146h-494zM400 849q0 -36 -26 -60.5t-64 -24.5t-63.5 25t-25.5 60t25.5 60.5t63.5 25.5t64 -25t26 -61z" />
    <glyph glyph-name="edotaccent" unicode="&#x117;" horiz-adv-x="596" 
d="M558 243v-20t-1 -19h-361q2 -21 12.5 -38t27 -29.5t37 -19.5t42.5 -7q39 0 66 14.5t44 37.5l114 -72q-35 -51 -92.5 -78.5t-133.5 -27.5q-56 0 -106 17.5t-87.5 51t-59 82.5t-21.5 112q0 61 21 110.5t57 84t85 53.5t106 19q55 0 101 -18.5t79 -53.5t51.5 -85t18.5 -114z
M407 306q0 39 -24.5 67t-73.5 28q-24 0 -44 -7.5t-35 -20.5t-24 -30.5t-10 -36.5h211zM401 657q0 -36 -26 -60.5t-64 -24.5t-63.5 25t-25.5 60t25.5 60.5t63.5 25.5t64 -25t26 -61z" />
    <glyph glyph-name="Eogonek" unicode="&#x118;" horiz-adv-x="607" 
d="M584 -196q-23 -17 -53 -28.5t-62 -11.5q-20 0 -40.5 5t-36.5 16t-26 28.5t-10 41.5q0 21 9.5 41.5t24 39.5t32.5 35t36 29h-385v708h476v-145h-311v-133h294v-137h-294v-147h329v-146h-17q-38 -30 -64 -61t-26 -57q0 -16 10.5 -26t26.5 -10q14 0 28 5.5t27 14.5l32 -62v0
z" />
    <glyph glyph-name="eogonek" unicode="&#x119;" horiz-adv-x="596" 
d="M407 306q0 39 -24.5 67t-73.5 28q-24 0 -44 -7.5t-35 -20.5t-24 -30.5t-10 -36.5h211zM434 -196q-23 -17 -53 -28.5t-62 -11.5q-20 0 -40.5 5t-36.5 16t-26 28.5t-10 41.5q0 37 25.5 70.5t56.5 59.5q-52 3 -97.5 22t-79 52.5t-53 80.5t-19.5 107q0 61 21 110.5t57 84
t85 53.5t106 19q55 0 101 -18.5t79 -53.5t51.5 -85t18.5 -114v-20t-1 -19h-361q2 -21 12.5 -38t27 -29.5t37 -19.5t42.5 -7q39 0 66 14.5t44 37.5l114 -72q-51 -76 -149 -97q-34 -29 -57 -57.5t-23 -53.5q0 -16 10.5 -26t26.5 -10q14 0 28 5.5t27 14.5l32 -62v0z" />
    <glyph glyph-name="Ecaron" unicode="&#x11a;" horiz-adv-x="607" 
d="M73 0v708h476v-145h-311v-133h294v-137h-294v-147h329v-146h-494zM385 764h-147l-124 144h130l68 -81l68 81h128z" />
    <glyph glyph-name="ecaron" unicode="&#x11b;" horiz-adv-x="596" 
d="M558 243v-20t-1 -19h-361q2 -21 12.5 -38t27 -29.5t37 -19.5t42.5 -7q39 0 66 14.5t44 37.5l114 -72q-35 -51 -92.5 -78.5t-133.5 -27.5q-56 0 -106 17.5t-87.5 51t-59 82.5t-21.5 112q0 61 21 110.5t57 84t85 53.5t106 19q55 0 101 -18.5t79 -53.5t51.5 -85t18.5 -114z
M407 306q0 39 -24.5 67t-73.5 28q-24 0 -44 -7.5t-35 -20.5t-24 -30.5t-10 -36.5h211zM386 572h-147l-124 144h130l68 -81l68 81h128z" />
    <glyph glyph-name="Gcircumflex" unicode="&#x11c;" horiz-adv-x="769" 
d="M702 43q-52 -27 -121.5 -44t-151.5 -17q-85 0 -156.5 27t-123 76t-80.5 117.5t-29 152.5q0 85 29.5 154t81.5 117.5t122 74.5t151 26q84 0 156 -25.5t117 -68.5l-108 -123q-25 29 -66 47.5t-93 18.5q-45 0 -83 -16.5t-66 -46t-43.5 -70t-15.5 -88.5q0 -49 14 -90
t41.5 -70.5t68 -46t92.5 -16.5q30 0 57 4.5t50 14.5v129h-135v138h292v-375v0zM499 764l-68 81l-68 -81h-128l124 144h148l122 -144h-130z" />
    <glyph glyph-name="gcircumflex" unicode="&#x11d;" horiz-adv-x="658" 
d="M436 252q0 25 -8.5 48t-24.5 40.5t-38 27.5t-50 10t-49.5 -10t-36.5 -27t-23 -40t-8 -49q0 -25 8 -48t23 -40.5t36.5 -28t49.5 -10.5t50.5 10.5t38 27.5t24 40t8.5 49zM592 47q0 -73 -21 -127t-59 -89.5t-92.5 -53t-120.5 -17.5t-135.5 20t-120.5 58l82 117
q36 -32 79.5 -47.5t85.5 -15.5q72 0 106.5 38t34.5 101v30h-3q-23 -30 -62 -48t-89 -18q-57 0 -101 20.5t-74.5 55.5t-46.5 81.5t-16 98.5t16 99t46.5 83t74.5 57.5t100 21.5q47 0 90 -19t69 -59h2v64h155v-451v0zM387 572l-68 81l-68 -81h-128l124 144h148l122 -144h-130z
" />
    <glyph glyph-name="Gbreve" unicode="&#x11e;" horiz-adv-x="769" 
d="M702 43q-52 -27 -121.5 -44t-151.5 -17q-85 0 -156.5 27t-123 76t-80.5 117.5t-29 152.5q0 85 29.5 154t81.5 117.5t122 74.5t151 26q84 0 156 -25.5t117 -68.5l-108 -123q-25 29 -66 47.5t-93 18.5q-45 0 -83 -16.5t-66 -46t-43.5 -70t-15.5 -88.5q0 -49 14 -90
t41.5 -70.5t68 -46t92.5 -16.5q30 0 57 4.5t50 14.5v129h-135v138h292v-375v0zM610 908q-3 -39 -18 -66.5t-38 -44.5t-53.5 -25t-65.5 -8q-34 0 -64.5 7.5t-53.5 25t-37.5 45t-17.5 66.5h84q3 -16 11.5 -26.5t21 -17t27.5 -9t30 -2.5q34 0 58.5 10t31.5 45h84v0z" />
    <glyph glyph-name="gbreve" unicode="&#x11f;" horiz-adv-x="658" 
d="M436 252q0 25 -8.5 48t-24.5 40.5t-38 27.5t-50 10t-49.5 -10t-36.5 -27t-23 -40t-8 -49q0 -25 8 -48t23 -40.5t36.5 -28t49.5 -10.5t50.5 10.5t38 27.5t24 40t8.5 49zM592 47q0 -73 -21 -127t-59 -89.5t-92.5 -53t-120.5 -17.5t-135.5 20t-120.5 58l82 117
q36 -32 79.5 -47.5t85.5 -15.5q72 0 106.5 38t34.5 101v30h-3q-23 -30 -62 -48t-89 -18q-57 0 -101 20.5t-74.5 55.5t-46.5 81.5t-16 98.5t16 99t46.5 83t74.5 57.5t100 21.5q47 0 90 -19t69 -59h2v64h155v-451v0zM499 716q-3 -39 -18 -66.5t-38 -44.5t-53.5 -25t-65.5 -8
q-34 0 -64.5 7.5t-53.5 25t-37.5 45t-17.5 66.5h84q6 -29 32 -44q13 -6 28 -8.5t30 -2.5q34 0 58.5 10t31.5 45h84v0z" />
    <glyph glyph-name="Gdotaccent" unicode="&#x120;" horiz-adv-x="769" 
d="M702 43q-52 -27 -121.5 -44t-151.5 -17q-85 0 -156.5 27t-123 76t-80.5 117.5t-29 152.5q0 85 29.5 154t81.5 117.5t122 74.5t151 26q84 0 156 -25.5t117 -68.5l-108 -123q-25 29 -66 47.5t-93 18.5q-45 0 -83 -16.5t-66 -46t-43.5 -70t-15.5 -88.5q0 -49 14 -90
t41.5 -70.5t68 -46t92.5 -16.5q30 0 57 4.5t50 14.5v129h-135v138h292v-375v0zM521 849q0 -36 -26 -60.5t-64 -24.5t-63.5 25t-25.5 60t25.5 60.5t63.5 25.5t64 -25t26 -61z" />
    <glyph glyph-name="gdotaccent" unicode="&#x121;" horiz-adv-x="658" 
d="M436 252q0 25 -8.5 48t-24.5 40.5t-38 27.5t-50 10t-49.5 -10t-36.5 -27t-23 -40t-8 -49q0 -25 8 -48t23 -40.5t36.5 -28t49.5 -10.5t50.5 10.5t38 27.5t24 40t8.5 49zM592 47q0 -73 -21 -127t-59 -89.5t-92.5 -53t-120.5 -17.5t-135.5 20t-120.5 58l82 117
q36 -32 79.5 -47.5t85.5 -15.5q72 0 106.5 38t34.5 101v30h-3q-23 -30 -62 -48t-89 -18q-57 0 -101 20.5t-74.5 55.5t-46.5 81.5t-16 98.5t16 99t46.5 83t74.5 57.5t100 21.5q47 0 90 -19t69 -59h2v64h155v-451v0zM411 657q0 -36 -26 -60.5t-64 -24.5t-63.5 25t-25.5 60
t25.5 60.5t63.5 25.5t64 -25t26 -61z" />
    <glyph glyph-name="Gcommaaccent" unicode="&#x122;" horiz-adv-x="769" 
d="M702 43q-52 -27 -121.5 -44t-151.5 -17q-85 0 -156.5 27t-123 76t-80.5 117.5t-29 152.5q0 85 29.5 154t81.5 117.5t122 74.5t151 26q84 0 156 -25.5t117 -68.5l-108 -123q-25 29 -66 47.5t-93 18.5q-45 0 -83 -16.5t-66 -46t-43.5 -70t-15.5 -88.5q0 -49 14 -90
t41.5 -70.5t68 -46t92.5 -16.5q30 0 57 4.5t50 14.5v129h-135v138h292v-375v0zM420 -240h-126l67 195h145z" />
    <glyph glyph-name="gcommaaccent" unicode="&#x123;" horiz-adv-x="658" 
d="M436 252q0 25 -8.5 48t-24.5 40.5t-38 27.5t-50 10t-49.5 -10t-36.5 -27t-23 -40t-8 -49q0 -25 8 -48t23 -40.5t36.5 -28t49.5 -10.5t50.5 10.5t38 27.5t24 40t8.5 49zM592 47q0 -73 -21 -127t-59 -89.5t-92.5 -53t-120.5 -17.5t-135.5 20t-120.5 58l82 117
q36 -32 79.5 -47.5t85.5 -15.5q72 0 106.5 38t34.5 101v30h-3q-23 -30 -62 -48t-89 -18q-57 0 -101 20.5t-74.5 55.5t-46.5 81.5t-16 98.5t16 99t46.5 83t74.5 57.5t100 21.5q47 0 90 -19t69 -59h2v64h155v-451v0zM333 767h126l-67 -195h-145z" />
    <glyph glyph-name="Hcircumflex" unicode="&#x124;" horiz-adv-x="764" 
d="M520 0v296h-276v-296h-171v708h171v-268h276v268h171v-708h-171zM452 764l-68 81l-68 -81h-128l124 144h148l122 -144h-130z" />
    <glyph glyph-name="hcircumflex" unicode="&#x125;" horiz-adv-x="617" 
d="M392 0v270q0 21 -3 40t-11.5 33.5t-22.5 23t-36 8.5q-43 0 -66 -30.5t-23 -75.5v-269h-164v756h164v-321h2q17 30 54 53.5t89 23.5q51 0 85.5 -18t56 -46.5t31 -65.5t9.5 -74v-308h-165zM382 796l-68 81l-68 -81h-128l124 144h148l122 -144h-130z" />
    <glyph glyph-name="Hbar" unicode="&#x126;" horiz-adv-x="764" 
d="M520 440v60h-276v-60h276zM520 0v296h-276v-296h-171v708h171v-119h276v119h171v-708h-171z" />
    <glyph glyph-name="hbar" unicode="&#x127;" horiz-adv-x="617" 
d="M392 0v270q0 21 -3 40t-11.5 33.5t-22.5 23t-36 8.5q-43 0 -66 -30.5t-23 -75.5v-269h-164v570h-46v89h46v97h164v-97h149v-89h-149v-135h2q17 30 54 53.5t89 23.5q51 0 85.5 -18t56 -46.5t31 -65.5t9.5 -74v-308h-165z" />
    <glyph glyph-name="Itilde" unicode="&#x128;" horiz-adv-x="318" 
d="M73 0v708h172v-708h-172zM345 900q-3 -26 -11 -50t-21.5 -42t-33.5 -29t-47 -11q-21 0 -41 6t-40 15q-20 11 -34.5 15.5t-28.5 4.5q-18 0 -27.5 -12t-14.5 -28h-72q3 26 11 49.5t21.5 41.5t33.5 28.5t47 10.5q21 0 40.5 -5.5t39.5 -14.5q21 -10 36 -15t29 -5
q19 0 28 11.5t14 29.5h71v0z" />
    <glyph glyph-name="itilde" unicode="&#x129;" horiz-adv-x="296" 
d="M66 0v498h164v-498h-164zM335 708q-3 -26 -11 -50t-21.5 -42t-33.5 -29t-47 -11q-21 0 -41 6t-40 15q-20 11 -34.5 15.5t-28.5 4.5q-18 0 -27.5 -12t-14.5 -28h-72q3 26 11 49.5t21.5 41.5t33.5 28.5t47 10.5q21 0 40.5 -5.5t39.5 -14.5q21 -10 36 -15t29 -5
q19 0 28 11.5t14 29.5h71v0z" />
    <glyph glyph-name="Imacron" unicode="&#x12a;" horiz-adv-x="318" 
d="M73 0v708h172v-708h-172zM-10 793v86h336v-86h-336z" />
    <glyph glyph-name="imacron" unicode="&#x12b;" horiz-adv-x="296" 
d="M66 0v498h164v-498h-164zM-18 601v86h336v-86h-336z" />
    <glyph glyph-name="Iogonek" unicode="&#x12e;" horiz-adv-x="318" 
d="M268 -196q-23 -17 -53 -28.5t-62 -11.5q-20 0 -40.5 5t-36.5 16t-26 28.5t-10 41.5q0 21 9.5 41.5t24 39.5t32.5 35t36 29h-69v708h172v-708h-11q-38 -30 -64 -61t-26 -57q0 -16 10.5 -26t26.5 -10q14 0 28 5.5t27 14.5l32 -62v0z" />
    <glyph glyph-name="iogonek" unicode="&#x12f;" horiz-adv-x="296" 
d="M242 657q0 -19 -7.5 -35.5t-20 -28.5t-30 -19t-36.5 -7q-40 0 -67 26.5t-27 63.5q0 18 7 34.5t20 28.5t30 19.5t37 7.5q19 0 36.5 -7t30 -19t20 -28.5t7.5 -35.5zM249 -196q-23 -17 -53 -28.5t-62 -11.5q-20 0 -40.5 5t-36.5 16t-26 28.5t-10 41.5q0 21 9.5 41.5t24 39.5
t32.5 35t36 29h-57v498h164v-498h-15q-38 -30 -64 -61t-26 -57q0 -16 10.5 -26t26.5 -10q14 0 28 5.5t27 14.5l32 -62v0z" />
    <glyph glyph-name="Idotaccent" unicode="&#x130;" horiz-adv-x="318" 
d="M73 0v708h172v-708h-172zM249 849q0 -36 -26 -60.5t-64 -24.5t-63.5 25t-25.5 60t25.5 60.5t63.5 25.5t64 -25t26 -61z" />
    <glyph glyph-name="dotlessi" unicode="&#x131;" horiz-adv-x="296" 
d="M66 0v498h164v-498h-164z" />
    <glyph glyph-name="IJ" unicode="&#x132;" horiz-adv-x="837" 
d="M73 0v708h172v-708h-172zM768 242q0 -42 -9.5 -88t-35 -84.5t-71 -63.5t-117.5 -25q-90 0 -150 46.5t-80 119.5l151 51q7 -28 25.5 -45t45.5 -17q42 0 55.5 29t13.5 76v467h172v-466v0z" />
    <glyph glyph-name="ij" unicode="&#x133;" horiz-adv-x="589" 
d="M66 0v498h164v-498h-164zM242 657q0 -19 -7.5 -35.5t-20 -28.5t-30 -19t-36.5 -7q-40 0 -67 26.5t-27 63.5q0 18 7 34.5t20 28.5t30 19.5t37 7.5q19 0 36.5 -7t30 -19t20 -28.5t7.5 -35.5zM523 -13q0 -46 -8.5 -87.5t-30.5 -72.5t-61 -49t-99 -18q-17 0 -37 2t-34 6
l11 137q9 -3 18.5 -4t16.5 -1q36 0 48 24.5t12 62.5v511h164v-511v0zM535 657q0 -19 -7.5 -35.5t-20 -28.5t-30 -19t-36.5 -7q-40 0 -67 26.5t-27 63.5q0 18 7 34.5t20 28.5t30 19.5t37 7.5q19 0 36.5 -7t30 -19t20 -28.5t7.5 -35.5z" />
    <glyph glyph-name="Jcircumflex" unicode="&#x134;" horiz-adv-x="529" 
d="M460 242q0 -42 -9.5 -88t-35 -84.5t-71 -63.5t-117.5 -25q-90 0 -150 46.5t-80 119.5l151 51q7 -28 25.5 -45t45.5 -17q42 0 55.5 29t13.5 76v467h172v-466v0zM440 764l-68 81l-68 -81h-128l124 144h148l122 -144h-130z" />
    <glyph glyph-name="jcircumflex" unicode="&#x135;" horiz-adv-x="299" 
d="M233 -13q0 -46 -8.5 -87.5t-30.5 -72.5t-61 -49t-99 -18q-17 0 -37 2t-34 6l11 137q9 -3 18.5 -4t16.5 -1q36 0 48 24.5t12 62.5v511h164v-511v0zM216 572l-68 81l-68 -81h-128l124 144h148l122 -144h-130z" />
    <glyph glyph-name="Kcommaaccent" unicode="&#x136;" horiz-adv-x="711" 
d="M506 0l-263 326h-2v-326h-168v708h168v-288h3l253 288h214l-305 -326l323 -382h-223zM357 -240h-126l67 195h145z" />
    <glyph glyph-name="kcommaaccent" unicode="&#x137;" horiz-adv-x="595" 
d="M599 0h-203l-163 239h-3v-239h-165v756h165v-460h3l159 202h199l-192 -225zM299 -240h-126l67 195h145z" />
    <glyph glyph-name="Lacute" unicode="&#x139;" horiz-adv-x="526" 
d="M73 0v708h172v-559h274v-149h-446zM219 764h-124l104 144h166z" />
    <glyph glyph-name="lacute" unicode="&#x13a;" horiz-adv-x="298" 
d="M66 0v756h166v-756h-166zM190 792h-124l104 144h166z" />
    <glyph glyph-name="Lcommaaccent" unicode="&#x13b;" horiz-adv-x="526" 
d="M73 0v708h172v-559h274v-149h-446zM280 -240h-126l67 195h145z" />
    <glyph glyph-name="lcommaaccent" unicode="&#x13c;" horiz-adv-x="298" 
d="M66 0v756h166v-756h-166zM137 -240h-126l67 195h145z" />
    <glyph glyph-name="Lcaron" unicode="&#x13d;" horiz-adv-x="526" 
d="M73 0v708h172v-559h274v-149h-446zM400 513h-126l67 195h145z" />
    <glyph glyph-name="lcaron" unicode="&#x13e;" horiz-adv-x="298" 
d="M66 0v756h166v-756h-166zM387 513h-126l67 195h145z" />
    <glyph glyph-name="Ldot" unicode="&#x13f;" horiz-adv-x="526" 
d="M73 0v708h172v-559h274v-149h-446zM508 347q0 -36 -26 -60.5t-64 -24.5t-63.5 25t-25.5 60t25.5 60.5t63.5 25.5t64 -25t26 -61z" />
    <glyph glyph-name="ldot" unicode="&#x140;" horiz-adv-x="448" 
d="M66 0v756h166v-756h-166zM460 337q0 -36 -26 -60.5t-64 -24.5t-63.5 25t-25.5 60t25.5 60.5t63.5 25.5t64 -25t26 -61z" />
    <glyph glyph-name="Lslash" unicode="&#x141;" horiz-adv-x="526" 
d="M73 0v177l-64 -56v142l64 56v389h172v-262l191 167v-141l-191 -167v-156h274v-149h-446z" />
    <glyph glyph-name="lslash" unicode="&#x142;" horiz-adv-x="298" 
d="M232 398v-398h-166v267l-58 -56v143l58 57v345h166v-217l58 57v-142z" />
    <glyph glyph-name="Nacute" unicode="&#x143;" horiz-adv-x="790" 
d="M523 0l-285 463h-3l4 -463h-166v708h195l284 -462h3l-4 462h166v-708h-194zM442 764h-124l104 144h166z" />
    <glyph glyph-name="nacute" unicode="&#x144;" horiz-adv-x="616" 
d="M391 0v272q0 21 -3.5 40t-11.5 33.5t-22.5 23t-36.5 8.5t-38.5 -8.5t-27.5 -23.5t-16.5 -34.5t-5.5 -40.5v-270h-165v498h159v-69h2q9 16 23.5 31.5t34 26.5t42.5 18t49 7q50 0 85 -18t56.5 -46.5t31 -65.5t9.5 -74v-308h-165zM338 572h-124l104 144h166z" />
    <glyph glyph-name="Ncommaaccent" unicode="&#x145;" horiz-adv-x="790" 
d="M523 0l-285 463h-3l4 -463h-166v708h195l284 -462h3l-4 462h166v-708h-194zM379 -240h-126l67 195h145z" />
    <glyph glyph-name="ncommaaccent" unicode="&#x146;" horiz-adv-x="616" 
d="M391 0v272q0 21 -3.5 40t-11.5 33.5t-22.5 23t-36.5 8.5t-38.5 -8.5t-27.5 -23.5t-16.5 -34.5t-5.5 -40.5v-270h-165v498h159v-69h2q9 16 23.5 31.5t34 26.5t42.5 18t49 7q50 0 85 -18t56.5 -46.5t31 -65.5t9.5 -74v-308h-165zM293 -240h-126l67 195h145z" />
    <glyph glyph-name="Ncaron" unicode="&#x147;" horiz-adv-x="790" 
d="M523 0l-285 463h-3l4 -463h-166v708h195l284 -462h3l-4 462h166v-708h-194zM472 764h-147l-124 144h130l68 -81l68 81h128z" />
    <glyph glyph-name="ncaron" unicode="&#x148;" horiz-adv-x="616" 
d="M391 0v272q0 21 -3.5 40t-11.5 33.5t-22.5 23t-36.5 8.5t-38.5 -8.5t-27.5 -23.5t-16.5 -34.5t-5.5 -40.5v-270h-165v498h159v-69h2q9 16 23.5 31.5t34 26.5t42.5 18t49 7q50 0 85 -18t56.5 -46.5t31 -65.5t9.5 -74v-308h-165zM384 572h-147l-124 144h130l68 -81l68 81
h128z" />
    <glyph glyph-name="napostrophe" unicode="&#x149;" horiz-adv-x="706" 
d="M481 0v272q0 21 -3.5 40t-11.5 33.5t-22.5 23t-36.5 8.5t-38.5 -8.5t-27.5 -23.5t-16.5 -34.5t-5.5 -40.5v-270h-165v498h159v-69h2q9 16 23.5 31.5t34 26.5t42.5 18t49 7q50 0 85 -18t56.5 -46.5t31 -65.5t9.5 -74v-308h-165zM117 513h-126l67 195h145z" />
    <glyph glyph-name="Omacron" unicode="&#x14c;" horiz-adv-x="851" 
d="M628 357q0 46 -15 86t-41.5 68.5t-64 45t-82.5 16.5t-82 -16.5t-64 -45t-41.5 -68.5t-14.5 -86q0 -48 15 -88.5t41.5 -69.5t63.5 -45.5t82 -16.5t82 16.5t64 45.5t42 69.5t15 88.5zM811 357q0 -84 -29 -153.5t-80.5 -119t-122.5 -76.5t-154 -27t-153.5 27t-122 76.5
t-80.5 119t-29 153.5q0 85 29 153.5t80.5 116.5t122 74t153.5 26t154 -26t122.5 -74t80.5 -116.5t29 -153.5zM255 793v86h336v-86h-336z" />
    <glyph glyph-name="omacron" unicode="&#x14d;" horiz-adv-x="632" 
d="M434 251q0 24 -8 47t-23 40.5t-37 28.5t-51 11t-51 -11t-36.5 -28.5t-22 -40.5t-7.5 -47t7.5 -47t22.5 -41.5t37 -29.5t51 -11t51 11t37 29.5t22.5 41.5t7.5 47zM592 251q0 -61 -22 -110.5t-60 -84t-88 -53.5t-107 -19q-56 0 -106.5 19t-88 53.5t-59.5 84t-22 110.5
t22 110t59.5 83t88 52t106.5 18q57 0 107 -18t88 -52t60 -83t22 -110zM147 601v86h336v-86h-336z" />
    <glyph glyph-name="Obreve" unicode="&#x14e;" horiz-adv-x="851" 
d="M628 357q0 46 -15 86t-41.5 68.5t-64 45t-82.5 16.5t-82 -16.5t-64 -45t-41.5 -68.5t-14.5 -86q0 -48 15 -88.5t41.5 -69.5t63.5 -45.5t82 -16.5t82 16.5t64 45.5t42 69.5t15 88.5zM811 357q0 -84 -29 -153.5t-80.5 -119t-122.5 -76.5t-154 -27t-153.5 27t-122 76.5
t-80.5 119t-29 153.5q0 85 29 153.5t80.5 116.5t122 74t153.5 26t154 -26t122.5 -74t80.5 -116.5t29 -153.5zM598 908q-3 -39 -18 -66.5t-38 -44.5t-53.5 -25t-65.5 -8q-34 0 -64.5 7.5t-53.5 25t-37.5 45t-17.5 66.5h84q3 -16 11.5 -26.5t21 -17t27.5 -9t30 -2.5
q34 0 58.5 10t31.5 45h84v0z" />
    <glyph glyph-name="obreve" unicode="&#x14f;" horiz-adv-x="632" 
d="M434 251q0 24 -8 47t-23 40.5t-37 28.5t-51 11t-51 -11t-36.5 -28.5t-22 -40.5t-7.5 -47t7.5 -47t22.5 -41.5t37 -29.5t51 -11t51 11t37 29.5t22.5 41.5t7.5 47zM592 251q0 -61 -22 -110.5t-60 -84t-88 -53.5t-107 -19q-56 0 -106.5 19t-88 53.5t-59.5 84t-22 110.5
t22 110t59.5 83t88 52t106.5 18q57 0 107 -18t88 -52t60 -83t22 -110zM488 716q-3 -39 -18 -66.5t-38 -44.5t-53.5 -25t-65.5 -8q-34 0 -64.5 7.5t-53.5 25t-37.5 45t-17.5 66.5h84q6 -29 32 -44q13 -6 28 -8.5t30 -2.5q34 0 58.5 10t31.5 45h84v0z" />
    <glyph glyph-name="Ohungarumlaut" unicode="&#x150;" horiz-adv-x="851" 
d="M628 357q0 46 -15 86t-41.5 68.5t-64 45t-82.5 16.5t-82 -16.5t-64 -45t-41.5 -68.5t-14.5 -86q0 -48 15 -88.5t41.5 -69.5t63.5 -45.5t82 -16.5t82 16.5t64 45.5t42 69.5t15 88.5zM811 357q0 -84 -29 -153.5t-80.5 -119t-122.5 -76.5t-154 -27t-153.5 27t-122 76.5
t-80.5 119t-29 153.5q0 85 29 153.5t80.5 116.5t122 74t153.5 26t154 -26t122.5 -74t80.5 -116.5t29 -153.5zM369 764h-124l104 144h166zM589 764h-124l104 144h166z" />
    <glyph glyph-name="ohungarumlaut" unicode="&#x151;" horiz-adv-x="632" 
d="M434 251q0 24 -8 47t-23 40.5t-37 28.5t-51 11t-51 -11t-36.5 -28.5t-22 -40.5t-7.5 -47t7.5 -47t22.5 -41.5t37 -29.5t51 -11t51 11t37 29.5t22.5 41.5t7.5 47zM592 251q0 -61 -22 -110.5t-60 -84t-88 -53.5t-107 -19q-56 0 -106.5 19t-88 53.5t-59.5 84t-22 110.5
t22 110t59.5 83t88 52t106.5 18q57 0 107 -18t88 -52t60 -83t22 -110zM267 572h-124l104 144h166zM487 572h-124l104 144h166z" />
    <glyph glyph-name="OE" unicode="&#x152;" horiz-adv-x="1019" 
d="M501 563h-46q-45 0 -87 -10t-74.5 -34t-52 -64.5t-19.5 -102.5q0 -57 19.5 -96t52 -63.5t73.5 -35.5t84 -11h50v417zM442 0q-75 0 -147 19.5t-129 62t-91.5 110t-34.5 163.5q0 97 34.5 164.5t91.5 109.5t129 60.5t147 18.5h520v-145h-298v-133h281v-137h-281v-147h315
v-146h-537z" />
    <glyph glyph-name="oe" unicode="&#x153;" horiz-adv-x="973" 
d="M915 90q-35 -51 -92 -78.5t-133 -27.5q-63 0 -113 23t-78 60q-29 -38 -76.5 -60.5t-109.5 -22.5q-57 0 -106.5 18.5t-87 53.5t-59 84t-21.5 111q0 61 21.5 109.5t59 82.5t87 52.5t106.5 18.5q61 0 110 -24.5t77 -62.5q31 37 78.5 62t108.5 25q54 0 99.5 -18.5t78.5 -53.5
t51.5 -85t18.5 -114v-20t-1 -19h-361q3 -21 13.5 -38.5t26.5 -29.5t36.5 -19t42.5 -7q39 0 66 14.5t44 37.5zM784 306q0 39 -24.5 67t-73.5 28q-24 0 -44 -7.5t-35 -20.5t-24 -30.5t-10 -36.5h211zM198 251q0 -24 7.5 -47.5t22 -41.5t36.5 -29t51 -11t51 11t37 29t22.5 41.5
t7.5 47.5t-7.5 46.5t-22.5 40.5t-37 29t-51 11t-51 -11t-36.5 -29t-22 -40.5t-7.5 -46.5z" />
    <glyph glyph-name="Racute" unicode="&#x154;" horiz-adv-x="663" 
d="M445 491q0 25 -10.5 40.5t-27 24t-37 11.5t-39.5 3h-91v-165h81q21 0 43 3.5t40 12.5t29.5 26t11.5 44zM452 0l-153 281h-58v-281h-168v708h270q51 0 99.5 -10.5t87 -35.5t61.5 -66t23 -102q0 -72 -39 -121t-108 -70l185 -303h-200zM350 764h-124l104 144h166z" />
    <glyph glyph-name="racute" unicode="&#x155;" horiz-adv-x="396" 
d="M387 364q-11 3 -21.5 4t-20.5 1q-33 0 -55.5 -12t-36 -29t-19.5 -37t-6 -35v-256h-164v498h158v-72h2q19 38 54 62t81 24q10 0 19.5 -1t15.5 -3zM231 572h-124l104 144h166z" />
    <glyph glyph-name="Rcommaaccent" unicode="&#x156;" horiz-adv-x="663" 
d="M445 491q0 25 -10.5 40.5t-27 24t-37 11.5t-39.5 3h-91v-165h81q21 0 43 3.5t40 12.5t29.5 26t11.5 44zM452 0l-153 281h-58v-281h-168v708h270q51 0 99.5 -10.5t87 -35.5t61.5 -66t23 -102q0 -72 -39 -121t-108 -70l185 -303h-200zM327 -240h-126l67 195h145z" />
    <glyph glyph-name="rcommaaccent" unicode="&#x157;" horiz-adv-x="396" 
d="M387 364q-11 3 -21.5 4t-20.5 1q-33 0 -55.5 -12t-36 -29t-19.5 -37t-6 -35v-256h-164v498h158v-72h2q19 38 54 62t81 24q10 0 19.5 -1t15.5 -3zM138 -241h-126l67 195h145z" />
    <glyph glyph-name="Rcaron" unicode="&#x158;" horiz-adv-x="663" 
d="M445 491q0 25 -10.5 40.5t-27 24t-37 11.5t-39.5 3h-91v-165h81q21 0 43 3.5t40 12.5t29.5 26t11.5 44zM452 0l-153 281h-58v-281h-168v708h270q51 0 99.5 -10.5t87 -35.5t61.5 -66t23 -102q0 -72 -39 -121t-108 -70l185 -303h-200zM394 764h-147l-124 144h130l68 -81
l68 81h128z" />
    <glyph glyph-name="rcaron" unicode="&#x159;" horiz-adv-x="396" 
d="M387 364q-11 3 -21.5 4t-20.5 1q-33 0 -55.5 -12t-36 -29t-19.5 -37t-6 -35v-256h-164v498h158v-72h2q19 38 54 62t81 24q10 0 19.5 -1t15.5 -3zM302 572h-147l-124 144h130l68 -81l68 81h128z" />
    <glyph glyph-name="Sacute" unicode="&#x15a;" horiz-adv-x="591" 
d="M447 524q-22 28 -57.5 44.5t-68.5 16.5q-17 0 -34.5 -3t-31.5 -11.5t-23.5 -22t-9.5 -34.5q0 -18 7.5 -30t22 -21t34.5 -16.5t45 -15.5q36 -12 75 -26.5t71 -38.5t53 -59.5t21 -88.5q0 -61 -22.5 -105.5t-60.5 -73.5t-87 -43t-101 -14q-76 0 -147 26.5t-118 75.5l112 114
q26 -32 68.5 -53.5t84.5 -21.5q19 0 37 4t31.5 13t21.5 24t8 36q0 20 -10 34t-28.5 25.5t-46 21t-62.5 20.5q-34 11 -66.5 26t-58 38.5t-41 57t-15.5 81.5q0 59 24 101t63 69t88 39.5t99 12.5q60 0 122.5 -22t109.5 -65zM341 764h-124l104 144h166z" />
    <glyph glyph-name="sacute" unicode="&#x15b;" horiz-adv-x="472" 
d="M357 351q-20 19 -47 32t-57 13q-23 0 -42.5 -9t-19.5 -31q0 -21 21.5 -30t69.5 -20q28 -6 56.5 -17t51.5 -29t37 -44t14 -62q0 -47 -19 -79.5t-49.5 -52.5t-68.5 -29t-76 -9q-61 0 -119.5 19.5t-97.5 57.5l92 97q22 -24 54 -40t68 -16q20 0 39.5 9.5t19.5 33.5
q0 23 -24 34t-75 23q-26 6 -52 16t-46.5 27t-33.5 42t-13 60q0 45 19 76.5t49 51.5t66.5 29.5t72.5 9.5q56 0 109.5 -17.5t90.5 -52.5zM278 572h-124l104 144h166z" />
    <glyph glyph-name="Scircumflex" unicode="&#x15c;" horiz-adv-x="591" 
d="M447 524q-22 28 -57.5 44.5t-68.5 16.5q-17 0 -34.5 -3t-31.5 -11.5t-23.5 -22t-9.5 -34.5q0 -18 7.5 -30t22 -21t34.5 -16.5t45 -15.5q36 -12 75 -26.5t71 -38.5t53 -59.5t21 -88.5q0 -61 -22.5 -105.5t-60.5 -73.5t-87 -43t-101 -14q-76 0 -147 26.5t-118 75.5l112 114
q26 -32 68.5 -53.5t84.5 -21.5q19 0 37 4t31.5 13t21.5 24t8 36q0 20 -10 34t-28.5 25.5t-46 21t-62.5 20.5q-34 11 -66.5 26t-58 38.5t-41 57t-15.5 81.5q0 59 24 101t63 69t88 39.5t99 12.5q60 0 122.5 -22t109.5 -65zM388 764l-68 81l-68 -81h-128l124 144h148l122 -144
h-130z" />
    <glyph glyph-name="scircumflex" unicode="&#x15d;" horiz-adv-x="472" 
d="M357 351q-20 19 -47 32t-57 13q-23 0 -42.5 -9t-19.5 -31q0 -21 21.5 -30t69.5 -20q28 -6 56.5 -17t51.5 -29t37 -44t14 -62q0 -47 -19 -79.5t-49.5 -52.5t-68.5 -29t-76 -9q-61 0 -119.5 19.5t-97.5 57.5l92 97q22 -24 54 -40t68 -16q20 0 39.5 9.5t19.5 33.5
q0 23 -24 34t-75 23q-26 6 -52 16t-46.5 27t-33.5 42t-13 60q0 45 19 76.5t49 51.5t66.5 29.5t72.5 9.5q56 0 109.5 -17.5t90.5 -52.5zM315 572l-68 81l-68 -81h-128l124 144h148l122 -144h-130z" />
    <glyph glyph-name="Scedilla" unicode="&#x15e;" horiz-adv-x="591" 
d="M417 -142q0 -29 -14 -48t-36 -30t-47.5 -15.5t-49.5 -4.5q-31 0 -63.5 7t-55.5 18l27 60q19 -9 41.5 -14t42.5 -5q16 0 33 6.5t17 26.5q0 18 -16 23.5t-31 5.5q-9 0 -20 -1.5t-20 -4.5l-31 29l54 72q-68 5 -129.5 30.5t-103.5 70.5l112 114q26 -32 68.5 -53.5t84.5 -21.5
q19 0 37 4t31.5 13t21.5 24t8 36q0 20 -10 34t-28.5 25.5t-46 21t-62.5 20.5q-34 11 -66.5 26t-58 38.5t-41 57t-15.5 81.5q0 59 24 101t63 69t88 39.5t99 12.5q60 0 122.5 -22t109.5 -65l-109 -115q-22 28 -57.5 44.5t-68.5 16.5q-17 0 -34.5 -3t-31.5 -11.5t-23.5 -22
t-9.5 -34.5q0 -18 7.5 -30t22 -21t34.5 -16.5t45 -15.5q36 -12 75 -26.5t71 -38.5t53 -59.5t21 -88.5q0 -54 -17.5 -94.5t-47.5 -69.5t-70 -45.5t-85 -22.5l-35 -46q5 1 9 1h9q18 0 36.5 -3.5t33 -12.5t24 -25.5t9.5 -41.5z" />
    <glyph glyph-name="scedilla" unicode="&#x15f;" horiz-adv-x="472" 
d="M363 -142q0 -29 -14 -48t-36 -30t-47.5 -15.5t-49.5 -4.5q-31 0 -63.5 7t-55.5 18l27 60q19 -9 41.5 -14t42.5 -5q16 0 33 6.5t17 26.5q0 18 -16 23.5t-31 5.5q-9 0 -20 -1.5t-20 -4.5l-31 29l56 75q-54 5 -102.5 23.5t-82.5 51.5l92 97q22 -24 54 -40t68 -16
q20 0 39.5 9.5t19.5 33.5q0 23 -24 34t-75 23q-26 6 -52 16t-46.5 27t-33.5 42t-13 60q0 45 19 76.5t49 52t66.5 30t72.5 9.5q56 0 109.5 -18t90.5 -53l-90 -93q-20 19 -47 32t-57 13q-23 0 -42.5 -9t-19.5 -31q0 -21 21.5 -30t69.5 -20q28 -6 56.5 -17t51.5 -29t37 -44
t14 -62q0 -39 -13.5 -68.5t-36 -49.5t-51.5 -32t-61 -16l-37 -48q5 1 9 1h9q18 0 36.5 -3.5t33 -12.5t24 -25.5t9.5 -41.5z" />
    <glyph glyph-name="Scaron" unicode="&#x160;" horiz-adv-x="591" 
d="M447 524q-22 28 -57.5 44.5t-68.5 16.5q-17 0 -34.5 -3t-31.5 -11.5t-23.5 -22t-9.5 -34.5q0 -18 7.5 -30t22 -21t34.5 -16.5t45 -15.5q36 -12 75 -26.5t71 -38.5t53 -59.5t21 -88.5q0 -61 -22.5 -105.5t-60.5 -73.5t-87 -43t-101 -14q-76 0 -147 26.5t-118 75.5l112 114
q26 -32 68.5 -53.5t84.5 -21.5q19 0 37 4t31.5 13t21.5 24t8 36q0 20 -10 34t-28.5 25.5t-46 21t-62.5 20.5q-34 11 -66.5 26t-58 38.5t-41 57t-15.5 81.5q0 59 24 101t63 69t88 39.5t99 12.5q60 0 122.5 -22t109.5 -65zM397 764h-147l-124 144h130l68 -81l68 81h128z" />
    <glyph glyph-name="scaron" unicode="&#x161;" horiz-adv-x="472" 
d="M357 351q-20 19 -47 32t-57 13q-23 0 -42.5 -9t-19.5 -31q0 -21 21.5 -30t69.5 -20q28 -6 56.5 -17t51.5 -29t37 -44t14 -62q0 -47 -19 -79.5t-49.5 -52.5t-68.5 -29t-76 -9q-61 0 -119.5 19.5t-97.5 57.5l92 97q22 -24 54 -40t68 -16q20 0 39.5 9.5t19.5 33.5
q0 23 -24 34t-75 23q-26 6 -52 16t-46.5 27t-33.5 42t-13 60q0 45 19 76.5t49 51.5t66.5 29.5t72.5 9.5q56 0 109.5 -17.5t90.5 -52.5zM321 572h-147l-124 144h130l68 -81l68 81h128z" />
    <glyph glyph-name="Tcommaaccent" unicode="&#x162;" horiz-adv-x="581" 
d="M376 562v-562h-171v562h-200v146h571v-146h-200zM279 -240h-126l67 195h145z" />
    <glyph glyph-name="tcommaaccent" unicode="&#x163;" horiz-adv-x="372" 
d="M242 375v-190q0 -35 13.5 -52.5t48.5 -17.5q12 0 25.5 2t22.5 6l2 -120q-17 -6 -43 -10.5t-52 -4.5q-50 0 -84 12.5t-54.5 36t-29.5 56t-9 72.5v210h-80v123h79v131h161v-131h117v-123h-117zM202 -240h-126l67 195h145z" />
    <glyph glyph-name="Tcaron" unicode="&#x164;" horiz-adv-x="581" 
d="M376 562v-562h-171v562h-200v146h571v-146h-200zM365 764h-147l-124 144h130l68 -81l68 81h128z" />
    <glyph glyph-name="tcaron" unicode="&#x165;" horiz-adv-x="372" 
d="M242 375v-190q0 -35 13.5 -52.5t48.5 -17.5q12 0 25.5 2t22.5 6l2 -120q-17 -6 -43 -10.5t-52 -4.5q-50 0 -84 12.5t-54.5 36t-29.5 56t-9 72.5v210h-80v123h79v131h161v-131h117v-123h-117zM396 536h-126l67 195h145z" />
    <glyph glyph-name="Tbar" unicode="&#x166;" horiz-adv-x="581" 
d="M376 562v-85h136v-89h-136v-388h-171v388h-131v89h131v85h-200v146h571v-146h-200z" />
    <glyph glyph-name="tbar" unicode="&#x167;" horiz-adv-x="372" 
d="M242 215v-30q0 -35 13.5 -52.5t48.5 -17.5q12 0 25.5 2t22.5 6l2 -120q-17 -6 -43 -10.5t-52 -4.5q-50 0 -84 12.5t-54.5 36t-29.5 56t-9 72.5v50h-71v89h71v71h-80v123h79v131h161v-131h117v-123h-117v-71h97v-89h-97z" />
    <glyph glyph-name="Utilde" unicode="&#x168;" horiz-adv-x="738" 
d="M673 267q0 -64 -21.5 -116.5t-61.5 -90t-96.5 -58.5t-125.5 -21q-70 0 -126 21t-95 58.5t-60 90t-21 116.5v441h170v-427q0 -29 7.5 -55t23 -46.5t41 -32.5t61.5 -12t61.5 12t41.5 32.5t23 46.5t7 55v427h171v-441v0zM559 900q-3 -26 -11 -50t-21.5 -42t-33.5 -29
t-47 -11q-21 0 -41 6t-40 15q-20 11 -34.5 15.5t-28.5 4.5q-18 0 -27.5 -12t-14.5 -28h-72q3 26 11 49.5t21.5 41.5t33.5 28.5t47 10.5q21 0 40.5 -5.5t39.5 -14.5q21 -10 36 -15t29 -5q19 0 28 11.5t14 29.5h71v0z" />
    <glyph glyph-name="utilde" unicode="&#x169;" horiz-adv-x="614" 
d="M392 0v69h-2q-9 -17 -23.5 -32t-34 -26t-43 -18t-49.5 -7q-50 0 -84.5 18t-56 46.5t-31 65t-9.5 74.5v308h165v-270q0 -21 3 -40t11.5 -34t22.5 -23.5t37 -8.5q43 0 65.5 32t22.5 75v269h164v-498h-158zM491 708q-3 -26 -11 -50t-21.5 -42t-33.5 -29t-47 -11q-21 0 -41 6
t-40 15q-20 11 -34.5 15.5t-28.5 4.5q-18 0 -27.5 -12t-14.5 -28h-72q3 26 11 49.5t21.5 41.5t33.5 28.5t47 10.5q21 0 40.5 -5.5t39.5 -14.5q21 -10 36 -15t29 -5q19 0 28 11.5t14 29.5h71v0z" />
    <glyph glyph-name="Umacron" unicode="&#x16a;" horiz-adv-x="738" 
d="M673 267q0 -64 -21.5 -116.5t-61.5 -90t-96.5 -58.5t-125.5 -21q-70 0 -126 21t-95 58.5t-60 90t-21 116.5v441h170v-427q0 -29 7.5 -55t23 -46.5t41 -32.5t61.5 -12t61.5 12t41.5 32.5t23 46.5t7 55v427h171v-441v0zM206 793v86h336v-86h-336z" />
    <glyph glyph-name="umacron" unicode="&#x16b;" horiz-adv-x="614" 
d="M392 0v69h-2q-9 -17 -23.5 -32t-34 -26t-43 -18t-49.5 -7q-50 0 -84.5 18t-56 46.5t-31 65t-9.5 74.5v308h165v-270q0 -21 3 -40t11.5 -34t22.5 -23.5t37 -8.5q43 0 65.5 32t22.5 75v269h164v-498h-158zM136 601v86h336v-86h-336z" />
    <glyph glyph-name="Ubreve" unicode="&#x16c;" horiz-adv-x="738" 
d="M673 267q0 -64 -21.5 -116.5t-61.5 -90t-96.5 -58.5t-125.5 -21q-70 0 -126 21t-95 58.5t-60 90t-21 116.5v441h170v-427q0 -29 7.5 -55t23 -46.5t41 -32.5t61.5 -12t61.5 12t41.5 32.5t23 46.5t7 55v427h171v-441v0zM544 908q-3 -39 -18 -66.5t-38 -44.5t-53.5 -25
t-65.5 -8q-34 0 -64.5 7.5t-53.5 25t-37.5 45t-17.5 66.5h84q3 -16 11.5 -26.5t21 -17t27.5 -9t30 -2.5q34 0 58.5 10t31.5 45h84v0z" />
    <glyph glyph-name="ubreve" unicode="&#x16d;" horiz-adv-x="614" 
d="M392 0v69h-2q-9 -17 -23.5 -32t-34 -26t-43 -18t-49.5 -7q-50 0 -84.5 18t-56 46.5t-31 65t-9.5 74.5v308h165v-270q0 -21 3 -40t11.5 -34t22.5 -23.5t37 -8.5q43 0 65.5 32t22.5 75v269h164v-498h-158zM479 716q-3 -39 -18 -66.5t-38 -44.5t-53.5 -25t-65.5 -8
q-34 0 -64.5 7.5t-53.5 25t-37.5 45t-17.5 66.5h84q6 -29 32 -44q13 -6 28 -8.5t30 -2.5q34 0 58.5 10t31.5 45h84v0z" />
    <glyph glyph-name="Uring" unicode="&#x16e;" horiz-adv-x="738" 
d="M673 267q0 -64 -21.5 -116.5t-61.5 -90t-96.5 -58.5t-125.5 -21q-70 0 -126 21t-95 58.5t-60 90t-21 116.5v441h170v-427q0 -29 7.5 -55t23 -46.5t41 -32.5t61.5 -12t61.5 12t41.5 32.5t23 46.5t7 55v427h171v-441v0zM433 856q0 25 -17 41.5t-42 16.5q-26 0 -42.5 -17
t-16.5 -42q0 -24 17 -40.5t42 -16.5t42 16.5t17 41.5zM483 856q0 -23 -8.5 -43t-23.5 -34t-35 -22t-42 -8q-23 0 -42.5 8t-34.5 22t-23.5 33.5t-8.5 42.5q0 47 31.5 77.5t77.5 30.5q22 0 42 -8t35 -22.5t23.5 -34t8.5 -42.5z" />
    <glyph glyph-name="uring" unicode="&#x16f;" horiz-adv-x="614" 
d="M392 0v69h-2q-9 -17 -23.5 -32t-34 -26t-43 -18t-49.5 -7q-50 0 -84.5 18t-56 46.5t-31 65t-9.5 74.5v308h165v-270q0 -21 3 -40t11.5 -34t22.5 -23.5t37 -8.5q43 0 65.5 32t22.5 75v269h164v-498h-158zM364 664q0 25 -17 41.5t-42 16.5q-26 0 -42.5 -17t-16.5 -42
q0 -24 17 -40.5t42 -16.5t42 16.5t17 41.5zM414 664q0 -23 -8.5 -43t-23.5 -34t-35 -22t-42 -8q-23 0 -42.5 8t-34.5 22t-23.5 33.5t-8.5 42.5q0 47 31.5 77.5t77.5 30.5q22 0 42 -8t35 -22.5t23.5 -34t8.5 -42.5z" />
    <glyph glyph-name="Uhungarumlaut" unicode="&#x170;" horiz-adv-x="738" 
d="M673 267q0 -64 -21.5 -116.5t-61.5 -90t-96.5 -58.5t-125.5 -21q-70 0 -126 21t-95 58.5t-60 90t-21 116.5v441h170v-427q0 -29 7.5 -55t23 -46.5t41 -32.5t61.5 -12t61.5 12t41.5 32.5t23 46.5t7 55v427h171v-441v0zM320 764h-124l104 144h166zM540 764h-124l104 144
h166z" />
    <glyph glyph-name="uhungarumlaut" unicode="&#x171;" horiz-adv-x="614" 
d="M392 0v69h-2q-9 -17 -23.5 -32t-34 -26t-43 -18t-49.5 -7q-50 0 -84.5 18t-56 46.5t-31 65t-9.5 74.5v308h165v-270q0 -21 3 -40t11.5 -34t22.5 -23.5t37 -8.5q43 0 65.5 32t22.5 75v269h164v-498h-158zM256 572h-124l104 144h166zM476 572h-124l104 144h166z" />
    <glyph glyph-name="Uogonek" unicode="&#x172;" horiz-adv-x="738" 
d="M483 -196q-23 -17 -53 -28.5t-62 -11.5q-20 0 -40.5 5t-36.5 16t-26 28.5t-10 41.5q0 36 24.5 69t55.5 59q-63 5 -112.5 27.5t-84.5 59.5t-53.5 87t-18.5 110v441h170v-427q0 -29 7.5 -55t23 -46.5t41 -32.5t61.5 -12t61.5 12t41.5 32.5t23 46.5t7 55v427h171v-441
q0 -56 -17 -103.5t-48 -84t-76 -60.5t-100 -33q-31 -27 -52 -54t-21 -50q0 -16 10.5 -26t26.5 -10q14 0 28 5.5t27 14.5l32 -62v0z" />
    <glyph glyph-name="uogonek" unicode="&#x173;" horiz-adv-x="614" 
d="M518 -196q-23 -17 -53 -28.5t-62 -11.5q-20 0 -40.5 5t-36.5 16t-26 28.5t-10 41.5q0 21 9.5 41.5t24 39.5t32.5 35t36 29v69h-2q-9 -17 -23.5 -32t-34 -26t-43 -18t-49.5 -7q-50 0 -84.5 18t-56 46.5t-31 65t-9.5 74.5v308h165v-270q0 -21 3 -40t11.5 -34t22.5 -23.5
t37 -8.5q43 0 65.5 32t22.5 75v269h164v-498h-66q-38 -30 -64 -61t-26 -57q0 -16 10.5 -26t26.5 -10q14 0 28 5.5t27 14.5l32 -62v0z" />
    <glyph glyph-name="Wcircumflex" unicode="&#x174;" horiz-adv-x="1025" 
d="M823 0h-169l-140 479h-3l-140 -479h-170l-201 708h184l112 -471h3l126 471h178l127 -471h3l114 471h178zM582 764l-68 81l-68 -81h-128l124 144h148l122 -144h-130z" />
    <glyph glyph-name="wcircumflex" unicode="&#x175;" horiz-adv-x="871" 
d="M698 0h-165l-98 310h-2l-96 -310h-165l-172 498h177l86 -315h3l89 315h165l92 -315h2l87 315h170zM505 572l-68 81l-68 -81h-128l124 144h148l122 -144h-130z" />
    <glyph glyph-name="Ycircumflex" unicode="&#x176;" horiz-adv-x="669" 
d="M417 300v-300h-171v300l-266 408h207l151 -262l151 262h200zM405 764l-68 81l-68 -81h-128l124 144h148l122 -144h-130z" />
    <glyph glyph-name="ycircumflex" unicode="&#x177;" horiz-adv-x="567" 
d="M345 -75q-15 -39 -33.5 -69.5t-44 -52t-60 -32.5t-81.5 -11q-23 0 -47.5 3t-42.5 8l18 138q12 -4 26.5 -6.5t26.5 -2.5q38 0 55 17.5t29 49.5l16 41l-208 490h182l111 -320h3l99 320h174zM359 572l-68 81l-68 -81h-128l124 144h148l122 -144h-130z" />
    <glyph glyph-name="Ydieresis" unicode="&#x178;" horiz-adv-x="669" 
d="M417 300v-300h-171v300l-266 408h207l151 -262l151 262h200zM313 850q0 -35 -24.5 -58.5t-59.5 -23.5t-59 24t-24 58q0 16 6.5 30.5t17.5 26t26.5 18t32.5 6.5q35 0 59.5 -23.5t24.5 -57.5zM530 850q0 -35 -24.5 -58.5t-58.5 -23.5q-35 0 -59 24t-24 58q0 16 6.5 30.5
t17.5 26t26 18t33 6.5q34 0 58.5 -23.5t24.5 -57.5z" />
    <glyph glyph-name="Zacute" unicode="&#x179;" horiz-adv-x="635" 
d="M39 0v148l337 415h-329v145h543v-137l-345 -423h352v-148h-558zM371 764h-124l104 144h166z" />
    <glyph glyph-name="zacute" unicode="&#x17a;" horiz-adv-x="512" 
d="M34 0v128l234 244h-225v126h425v-123l-241 -248h251v-127h-444zM297 572h-124l104 144h166z" />
    <glyph glyph-name="Zdotaccent" unicode="&#x17b;" horiz-adv-x="635" 
d="M39 0v148l337 415h-329v145h543v-137l-345 -423h352v-148h-558zM418 849q0 -36 -26 -60.5t-64 -24.5t-63.5 25t-25.5 60t25.5 60.5t63.5 25.5t64 -25t26 -61z" />
    <glyph glyph-name="zdotaccent" unicode="&#x17c;" horiz-adv-x="512" 
d="M34 0v128l234 244h-225v126h425v-123l-241 -248h251v-127h-444zM349 657q0 -36 -26 -60.5t-64 -24.5t-63.5 25t-25.5 60t25.5 60.5t63.5 25.5t64 -25t26 -61z" />
    <glyph glyph-name="Zcaron" unicode="&#x17d;" horiz-adv-x="635" 
d="M39 0v148l337 415h-329v145h543v-137l-345 -423h352v-148h-558zM393 764h-147l-124 144h130l68 -81l68 81h128z" />
    <glyph glyph-name="zcaron" unicode="&#x17e;" horiz-adv-x="512" 
d="M34 0v128l234 244h-225v126h425v-123l-241 -248h251v-127h-444zM336 572h-147l-124 144h130l68 -81l68 81h128z" />
    <glyph glyph-name="florin" unicode="&#x192;" horiz-adv-x="646" 
d="M528 323h-148l-55 -274q-18 -91 -66.5 -139.5t-138.5 -48.5q-32 0 -64 7t-58 21l58 120q12 -8 25.5 -12t24.5 -4q33 0 47.5 24.5t22.5 64.5l49 241h-114v113h134l16 78q8 39 21 77t36.5 67t59.5 47t91 18q42 0 76 -9t61 -25l-60 -121q-30 18 -57 18q-35 0 -50.5 -24.5
t-22.5 -60.5l-14 -65h126v-113z" />
    <glyph glyph-name="Scommaaccent" unicode="&#x218;" horiz-adv-x="591" 
d="M447 524q-22 28 -57.5 44.5t-68.5 16.5q-17 0 -34.5 -3t-31.5 -11.5t-23.5 -22t-9.5 -34.5q0 -18 7.5 -30t22 -21t34.5 -16.5t45 -15.5q36 -12 75 -26.5t71 -38.5t53 -59.5t21 -88.5q0 -61 -22.5 -105.5t-60.5 -73.5t-87 -43t-101 -14q-76 0 -147 26.5t-118 75.5l112 114
q26 -32 68.5 -53.5t84.5 -21.5q19 0 37 4t31.5 13t21.5 24t8 36q0 20 -10 34t-28.5 25.5t-46 21t-62.5 20.5q-34 11 -66.5 26t-58 38.5t-41 57t-15.5 81.5q0 59 24 101t63 69t88 39.5t99 12.5q60 0 122.5 -22t109.5 -65zM278 -240h-126l67 195h145z" />
    <glyph glyph-name="scommaaccent" unicode="&#x219;" horiz-adv-x="472" 
d="M357 351q-20 19 -47 32t-57 13q-23 0 -42.5 -9t-19.5 -31q0 -21 21.5 -30t69.5 -20q28 -6 56.5 -17t51.5 -29t37 -44t14 -62q0 -47 -19 -79.5t-49.5 -52.5t-68.5 -29t-76 -9q-61 0 -119.5 19.5t-97.5 57.5l92 97q22 -24 54 -40t68 -16q20 0 39.5 9.5t19.5 33.5
q0 23 -24 34t-75 23q-26 6 -52 16t-46.5 27t-33.5 42t-13 60q0 45 19 76.5t49 51.5t66.5 29.5t72.5 9.5q56 0 109.5 -17.5t90.5 -52.5zM218 -240h-126l67 195h145z" />
    <glyph glyph-name="uni021A" unicode="&#x21a;" horiz-adv-x="581" 
d="M376 562v-562h-171v562h-200v146h571v-146h-200zM279 -240h-126l67 195h145z" />
    <glyph glyph-name="uni021B" unicode="&#x21b;" horiz-adv-x="372" 
d="M242 375v-190q0 -35 13.5 -52.5t48.5 -17.5q12 0 25.5 2t22.5 6l2 -120q-17 -6 -43 -10.5t-52 -4.5q-50 0 -84 12.5t-54.5 36t-29.5 56t-9 72.5v210h-80v123h79v131h161v-131h117v-123h-117zM202 -240h-126l67 195h145z" />
    <glyph glyph-name="dotlessj" unicode="&#x237;" horiz-adv-x="299" 
d="M233 -13q0 -46 -8.5 -87.5t-30.5 -72.5t-61 -49t-99 -18q-17 0 -37 2t-34 6l11 137q9 -3 18.5 -4t16.5 -1q36 0 48 24.5t12 62.5v511h164v-511v0z" />
    <glyph glyph-name="circumflex" unicode="&#x2c6;" 
d="M217 572l-68 81l-68 -81h-128l124 144h148l122 -144h-130z" />
    <glyph glyph-name="caron" unicode="&#x2c7;" 
d="M224 572h-147l-124 144h130l68 -81l68 81h128z" />
    <glyph glyph-name="uni02C9" unicode="&#x2c9;" 
d="M-18 793v86h336v-86h-336z" />
    <glyph glyph-name="breve" unicode="&#x2d8;" 
d="M324 716q-3 -39 -18 -66.5t-38 -44.5t-53.5 -25t-65.5 -8q-34 0 -64.5 7.5t-53.5 25t-37.5 45t-17.5 66.5h84q6 -29 32 -44q13 -6 28 -8.5t30 -2.5q34 0 58.5 10t31.5 45h84v0z" />
    <glyph glyph-name="dotaccent" unicode="&#x2d9;" 
d="M240 657q0 -36 -26 -60.5t-64 -24.5t-63.5 25t-25.5 60t25.5 60.5t63.5 25.5t64 -25t26 -61z" />
    <glyph glyph-name="ring" unicode="&#x2da;" 
d="M209 664q0 25 -17 41.5t-42 16.5q-26 0 -42.5 -17t-16.5 -42q0 -24 17 -40.5t42 -16.5t42 16.5t17 41.5zM259 664q0 -23 -8.5 -43t-23.5 -34t-35 -22t-42 -8q-23 0 -42.5 8t-34.5 22t-23.5 33.5t-8.5 42.5q0 47 31.5 77.5t77.5 30.5q22 0 42 -8t35 -22.5t23.5 -34
t8.5 -42.5z" />
    <glyph glyph-name="ogonek" unicode="&#x2db;" 
d="M240 -196q-23 -17 -53 -28.5t-62 -11.5q-20 0 -40.5 5t-36.5 16t-26 28.5t-10 41.5q0 22 10 43.5t26 40.5t35 35.5t37 29.5h91q-39 -31 -67 -63t-28 -59q0 -16 10.5 -26t26.5 -10q14 0 28 5.5t27 14.5l32 -62v0z" />
    <glyph glyph-name="tilde" unicode="&#x2dc;" 
d="M335 708q-3 -26 -11 -50t-21.5 -42t-33.5 -29t-47 -11q-21 0 -41 6t-40 15q-20 11 -34.5 15.5t-28.5 4.5q-18 0 -27.5 -12t-14.5 -28h-72q3 26 11 49.5t21.5 41.5t33.5 28.5t47 10.5q21 0 40.5 -5.5t39.5 -14.5q21 -10 36 -15t29 -5q19 0 28 11.5t14 29.5h71v0z" />
    <glyph glyph-name="hungarumlaut" unicode="&#x2dd;" 
d="M90 572h-124l104 144h166zM310 572h-124l104 144h166z" />
    <glyph glyph-name="uni0394" unicode="&#x394;" horiz-adv-x="710" 
d="M344 503l-130 -358h268zM9 0l268 708h140l284 -708h-692z" />
    <glyph glyph-name="uni03A9" unicode="&#x3a9;" horiz-adv-x="771" 
d="M429 0v219q32 8 56.5 25t41.5 42q33 49 33 119q0 40 -14.5 72.5t-38.5 55t-55 35t-65 12.5q-35 0 -66.5 -12t-55.5 -35t-38.5 -55.5t-14.5 -73.5q0 -69 36.5 -118.5t93.5 -66.5v-219h-291v144h167v11q-39 12 -70 36t-52 56q-45 68 -45 158q0 71 26.5 129t72 99.5
t106 64.5t129.5 23t130 -22.5t106.5 -63.5t72 -99t26.5 -129q0 -45 -11 -85.5t-32 -73.5t-52 -57t-72 -36v-11h167v-144h-291z" />
    <glyph glyph-name="uni03BC" unicode="&#x3bc;" horiz-adv-x="666" 
d="M251 498v-248q0 -17 2.5 -38.5t11 -40.5t23.5 -32t40 -13t42.5 9t28 24t15.5 35t5 43v261h162v-498h-155v57h-1q-15 -26 -40.5 -45t-70.5 -19q-18 0 -35 5t-28 15v-239h-162v724h162z" />
    <glyph glyph-name="pi" unicode="&#x3c0;" horiz-adv-x="666" 
d="M627 18q-27 -14 -56 -19.5t-63 -5.5q-37 0 -61 10.5t-38 29.5t-19.5 44t-5.5 54v230h-115v-361h-166v361h-69v137h591v-137h-78v-201q0 -16 7 -29.5t28 -13.5q18 0 45 12v-111v0z" />
    <glyph glyph-name="endash" unicode="&#x2013;" horiz-adv-x="400" 
d="M30 210v103h340v-103h-340z" />
    <glyph glyph-name="emdash" unicode="&#x2014;" horiz-adv-x="600" 
d="M30 209v104h540v-104h-540z" />
    <glyph glyph-name="quoteleft" unicode="&#x2018;" 
d="M187 437h-145l91 271h126z" />
    <glyph glyph-name="quoteright" unicode="&#x2019;" 
d="M167 437h-126l72 271h145z" />
    <glyph glyph-name="quotesinglbase" unicode="&#x201a;" 
d="M166 -126h-126l72 271h145z" />
    <glyph glyph-name="quotedblleft" unicode="&#x201c;" horiz-adv-x="507" 
d="M185 437h-143l91 271h126zM395 437h-144l89 271h126z" />
    <glyph glyph-name="quotedblright" unicode="&#x201d;" horiz-adv-x="507" 
d="M167 437h-126l72 271h143zM375 437h-127l74 271h143z" />
    <glyph glyph-name="quotedblbase" unicode="&#x201e;" horiz-adv-x="507" 
d="M166 -126h-126l72 271h143zM374 -126h-127l74 271h143z" />
    <glyph glyph-name="dagger" unicode="&#x2020;" horiz-adv-x="603" 
d="M371 382v-511h-142v511h-191v125h191v201h142v-201h194v-125h-194z" />
    <glyph glyph-name="daggerdbl" unicode="&#x2021;" horiz-adv-x="603" 
d="M372 50v-179h-141v179h-189v124h189v232h-189v123h188v179h142v-179h190v-123h-190v-232h190v-124h-190z" />
    <glyph glyph-name="bullet" unicode="&#x2022;" horiz-adv-x="500" 
d="M427 354q0 -37 -14 -69t-38 -56t-56 -38t-69 -14t-69 14t-56 38t-38 56t-14 69t14 69t38 56t56 38t69 14t69 -14t56 -38t38 -56t14 -69z" />
    <glyph glyph-name="ellipsis" unicode="&#x2026;" horiz-adv-x="1000" 
d="M267 88q0 -42 -29 -70t-71 -28q-20 0 -38.5 7.5t-32.5 20.5t-22 30.5t-8 38.5q0 20 8 38t22 31.5t32 21.5t39 8q41 0 70.5 -28t29.5 -70zM600 88q0 -42 -29.5 -70t-70.5 -28q-20 0 -38.5 7.5t-32.5 20.5t-22.5 30.5t-8.5 38.5q0 20 8 38t22 31.5t32.5 21.5t39.5 8
q41 0 70.5 -28t29.5 -70zM933 88q0 -42 -29.5 -70t-70.5 -28q-20 0 -38.5 7.5t-32.5 20.5t-22.5 30.5t-8.5 38.5q0 20 8 38t22 31.5t32.5 21.5t39.5 8q41 0 70.5 -28t29.5 -70z" />
    <glyph glyph-name="perthousand" unicode="&#x2030;" horiz-adv-x="1245" 
d="M272 -30l-89 39l388 731l89 -41zM288 542q0 32 -21.5 53t-52.5 21q-32 0 -53 -21t-21 -53t21 -53t53 -21q31 0 52.5 21t21.5 53zM394 542q0 -37 -14.5 -69.5t-39 -57t-57 -38.5t-69.5 -14t-70 14t-57.5 38.5t-38.5 57t-14 69.5t14 69.5t38.5 56.5t57.5 38t70 14t69.5 -14
t57 -38t39 -56.5t14.5 -69.5zM706 167q0 32 -21.5 53t-52.5 21q-32 0 -53 -21t-21 -53t21 -53t53 -21q31 0 52.5 21t21.5 53zM812 167q0 -37 -14.5 -69.5t-39 -57t-57 -38.5t-69.5 -14t-70 14t-57.5 38.5t-38.5 57t-14 69.5t14 69.5t38.5 56.5t57.5 38t70 14t69.5 -14
t57 -38t39 -56.5t14.5 -69.5zM1104 167q0 32 -21 53t-53 21t-53 -21t-21 -53t21 -53t53 -21t53 21t21 53zM1210 167q0 -37 -14 -69.5t-38.5 -57t-57.5 -38.5t-70 -14t-69.5 14t-57 38.5t-38.5 57t-14 69.5t14 69.5t38.5 56.5t57 38t69.5 14t70 -14t57.5 -38t38.5 -56.5
t14 -69.5z" />
    <glyph glyph-name="guilsinglleft" unicode="&#x2039;" horiz-adv-x="318" 
d="M186 22l-161 232l161 232l97 -63l-115 -169l116 -169z" />
    <glyph glyph-name="guilsinglright" unicode="&#x203a;" horiz-adv-x="318" 
d="M132 22l-97 63l115 168l-116 170l98 63l161 -233z" />
    <glyph glyph-name="fraction" unicode="&#x2044;" horiz-adv-x="100" 
d="M-107 -30l-87 39l388 731l87 -41z" />
    <glyph glyph-name="Euro" unicode="&#x20ac;" horiz-adv-x="646" 
d="M604 20q-29 -17 -74.5 -28t-101.5 -11q-66 0 -118.5 18t-91.5 49.5t-65.5 74.5t-39.5 93h-92l34 103h45q-1 9 -1 18v17q0 18 3 36h-78l36 104h57q16 55 47 98t74.5 73t97 46t114.5 16q44 0 89 -8t74 -22l-49 -126q-22 11 -54.5 17t-64.5 6q-26 0 -51 -6.5t-46.5 -19
t-38.5 -31.5t-26 -43h265l-35 -104h-258q-2 -9 -2 -17.5v-19.5v-16.5t1 -17.5h241l-34 -103h-186q7 -21 22 -39.5t37 -32t49 -21t57 -7.5q74 0 127 31z" />
    <glyph glyph-name="afii61289" unicode="&#x2113;" horiz-adv-x="500" 
d="M336 557q0 25 -9 43.5t-26 18.5q-15 0 -25 -19.5t-10 -49.5v-157q39 40 54.5 81t15.5 83zM465 56q-43 -35 -86.5 -52.5t-94.5 -17.5q-42 0 -74.5 12t-54.5 32t-33 47.5t-11 59.5v25l-54 -45h-2l-54 84l109 86v233q0 42 14 78.5t39.5 64t61 43t77.5 15.5q37 0 66.5 -11.5
t50.5 -31.5t32 -49t11 -63q0 -77 -48 -149.5t-148 -153.5v-101q0 -35 18 -49t39 -14q36 0 88 37h2l52 -80v0z" />
    <glyph glyph-name="trademark" unicode="&#x2122;" horiz-adv-x="1000" 
d="M268 613v-317h-110v317h-118v95h346v-95h-118zM842 296v259h-2l-97 -259h-79l-96 259h-2v-259h-105v412h150l95 -260l92 260h150v-412h-106z" />
    <glyph glyph-name="Omega" unicode="&#x2126;" horiz-adv-x="771" 
d="M429 0v219q32 8 56.5 25t41.5 42q33 49 33 119q0 40 -14.5 72.5t-38.5 55t-55 35t-65 12.5q-35 0 -66.5 -12t-55.5 -35t-38.5 -55.5t-14.5 -73.5q0 -69 36.5 -118.5t93.5 -66.5v-219h-291v144h167v11q-39 12 -70 36t-52 56q-45 68 -45 158q0 71 26.5 129t72 99.5
t106 64.5t129.5 23t130 -22.5t106.5 -63.5t72 -99t26.5 -129q0 -45 -11 -85.5t-32 -73.5t-52 -57t-72 -36v-11h167v-144h-291z" />
    <glyph glyph-name="estimated" unicode="&#x212e;" horiz-adv-x="800" 
d="M210 355v-240q76 -78 192 -78q83 0 144 37.5t112 121.5l46 -28q-30 -48 -61.5 -82t-67.5 -55.5t-78.5 -32t-94.5 -10.5q-78 0 -141 28.5t-108 78.5t-69 116.5t-24 143.5t24 143.5t69 116t108 77.5t141 28q76 0 139.5 -27t108.5 -75.5t70 -115.5t25 -147h-535zM595 402
v193q-82 79 -194 79t-191 -79v-193h385z" />
    <glyph glyph-name="partialdiff" unicode="&#x2202;" horiz-adv-x="666" 
d="M420 292q-47 36 -92 36q-46 0 -69.5 -29.5t-23.5 -76.5q0 -45 23 -73.5t61 -28.5q27 0 46.5 14t31.5 36.5t17.5 51t5.5 57.5v13v0zM427 428q0 27 -7.5 54t-23.5 49.5t-40 36.5t-58 14q-33 0 -67 -12t-70 -54l-77 112q93 93 215 93q84 0 139.5 -33t89 -85t47.5 -116.5
t14 -127.5q0 -39 -4.5 -82t-15.5 -84.5t-30.5 -79t-50 -65.5t-73 -44.5t-99.5 -16.5q-54 0 -99.5 18t-78.5 50t-51 76.5t-18 97.5q0 49 16.5 91t47 72.5t75 47.5t101.5 17q65 0 118 -29z" />
    <glyph glyph-name="Delta" unicode="&#x2206;" horiz-adv-x="710" 
d="M344 503l-130 -358h268zM9 0l268 708h140l284 -708h-692z" />
    <glyph glyph-name="product" unicode="&#x220f;" horiz-adv-x="753" 
d="M543 -214v867h-333v-867h-151v1000h636v-1000h-152z" />
    <glyph glyph-name="summation" unicode="&#x2211;" horiz-adv-x="666" 
d="M26 -214v111l292 395l-280 383v111h594v-133h-402l256 -360l-273 -374h431v-133h-618z" />
    <glyph glyph-name="minus" unicode="&#x2212;" horiz-adv-x="666" 
d="M68 242v123h530v-123h-530z" />
    <glyph glyph-name="uni2215" unicode="&#x2215;" horiz-adv-x="100" 
d="M-107 -30l-87 39l388 731l87 -41z" />
    <glyph glyph-name="uni2219" unicode="&#x2219;" 
d="M251 291q0 -42 -29.5 -70t-70.5 -28q-21 0 -39.5 7.5t-32.5 20.5t-22 30.5t-8 38.5q0 20 8 38t22 31.5t32.5 21.5t39.5 8q41 0 70.5 -28t29.5 -70z" />
    <glyph glyph-name="radical" unicode="&#x221a;" horiz-adv-x="569" 
d="M365 -214h-126l-145 300l-51 -24l-54 114l175 79l112 -239l158 770h145z" />
    <glyph glyph-name="infinity" unicode="&#x221e;" horiz-adv-x="837" 
d="M344 262q-12 12 -26 24.5t-29 23t-31 17t-31 6.5q-29 0 -46.5 -20.5t-17.5 -49.5q0 -31 18 -49.5t49 -18.5q32 0 61.5 21.5t52.5 45.5zM674 263q0 31 -17.5 51t-49.5 20q-16 0 -32 -7t-30.5 -17.5t-27.5 -23t-24 -24.5q23 -26 52.5 -47t64.5 -21q30 0 47 20t17 49z
M792 266q0 -39 -12.5 -74t-35.5 -61t-57.5 -41t-77.5 -15q-31 0 -57.5 8.5t-50 22.5t-44 33t-38.5 39q-19 -20 -39 -38.5t-42.5 -32.5t-48.5 -22.5t-58 -8.5q-43 0 -77.5 14.5t-58.5 40t-37 60t-13 74.5q0 39 12.5 73t36 59.5t57 40t76.5 14.5q33 0 60 -9t50 -24t43.5 -35
t38.5 -41q18 21 38 41t43 35.5t50.5 24.5t59.5 9q43 0 76.5 -14.5t57 -40t36 -59.5t12.5 -73z" />
    <glyph glyph-name="integral" unicode="&#x222b;" horiz-adv-x="633" 
d="M519 696q0 -28 -18.5 -47.5t-47.5 -19.5q-20 0 -30.5 8t-17.5 18.5t-12 20.5t-13 13q-9 -8 -10 -25t-1 -28q0 -21 1 -41.5t1 -41.5v-440v-56.5t-2 -56.5q-2 -39 -9 -77.5t-25 -69t-50 -49t-82 -18.5q-19 0 -40.5 5t-40 15.5t-31 28t-12.5 43.5q0 10 5 18q5 20 22 33
t40 13q19 0 29.5 -8t17 -18.5t11 -19.5t12.5 -12q5 3 7.5 8.5t3.5 12.5t1 14v12q1 20 -0.5 40t-1.5 40v34v462q0 44 3.5 93t20 90t50.5 68t96 27q17 0 38.5 -4.5t40 -15t31.5 -27.5t13 -42z" />
    <glyph glyph-name="approxequal" unicode="&#x2248;" horiz-adv-x="666" 
d="M579 247q-4 -32 -13.5 -65t-28 -59.5t-47 -43t-70.5 -16.5q-30 0 -64.5 10t-67.5 22.5t-63.5 22.5t-52.5 10q-21 0 -34 -17.5t-18 -44.5h-96q3 34 13 68.5t29 61.5t47.5 44t68.5 17q31 0 62.5 -9.5t63 -21t63 -21t62.5 -9.5q20 0 32 14.5t17 36.5h97v0zM580 468
q-8 -92 -50 -142t-111 -50q-30 0 -63.5 10t-66.5 22t-63 22t-53 10q-21 0 -33.5 -17t-17.5 -38h-96q3 34 13 67t29.5 58.5t49 41.5t70.5 16q31 0 62 -9t61.5 -20.5t61 -20.5t60.5 -9q22 0 34 15.5t16 43.5h97v0z" />
    <glyph glyph-name="notequal" unicode="&#x2260;" horiz-adv-x="666" 
d="M296 110l-74 -146l-115 56l47 90h-102v127h167l43 84h-210v127h275l75 145l115 -55l-47 -90h99v-127h-164l-43 -84h207v-127h-273z" />
    <glyph glyph-name="lessequal" unicode="&#x2264;" horiz-adv-x="666" 
d="M79 368v103l508 214v-136l-306 -131l306 -127v-137zM79 18v123h508v-123h-508z" />
    <glyph glyph-name="greaterequal" unicode="&#x2265;" horiz-adv-x="666" 
d="M79 291l306 127l-306 131v136l508 -214v-103l-508 -214v137zM79 141h508v-123h-508v123z" />
    <glyph glyph-name="lozenge" unicode="&#x25ca;" horiz-adv-x="606" 
d="M302 597l-101 -241l101 -241l103 241zM362 -35h-120l-181 391l182 391h119l184 -391z" />
    <glyph glyph-name="commaaccent" unicode="&#xf6c3;" 
d="M149 -240h-126l67 195h145z" />
    <glyph glyph-name="uniF8FF" unicode="&#xf8ff;" horiz-adv-x="512" 
d="M512 718v-718h-512v718h512zM462 50v617h-412v-617h412zM225 234l-2 17q0 56 13 81q7 13 18 27.5t28 31.5q16 15 26 26.5t15 21t7 18t2 17.5q0 36 -22.5 60.5t-53.5 24.5t-53.5 -22t-28.5 -73l-50 8q7 72 44 104.5t91 32.5t89 -35.5t35 -95.5q0 -32 -12.5 -58.5
t-50.5 -61.5q-37 -33 -43 -52q-6 -20 -6 -72h-46zM222 117v67h56v-67h-56z" />
    <glyph glyph-name="grave.cap" 
d="M111 764l-146 144h166l104 -144h-124z" />
    <glyph glyph-name="acute.cap" 
d="M189 764h-124l104 144h166z" />
    <glyph glyph-name="circumflex.cap" 
d="M217 764l-68 81l-68 -81h-128l124 144h148l122 -144h-130z" />
    <glyph glyph-name="caron.cap" 
d="M224 764h-147l-124 144h130l68 -81l68 81h128z" />
    <glyph glyph-name="tilde.cap" 
d="M335 900q-3 -26 -11 -50t-21.5 -42t-33.5 -29t-47 -11q-21 0 -41 6t-40 15q-20 11 -34.5 15.5t-28.5 4.5q-18 0 -27.5 -12t-14.5 -28h-72q3 26 11 49.5t21.5 41.5t33.5 28.5t47 10.5q21 0 40.5 -5.5t39.5 -14.5q21 -10 36 -15t29 -5q19 0 28 11.5t14 29.5h71v0z" />
    <glyph glyph-name="commaaccent.alt" 
d="M142 767h126l-67 -195h-145z" />
    <glyph glyph-name="dieresis.cap" 
d="M125 850q0 -35 -24.5 -58.5t-59.5 -23.5t-59 24t-24 58q0 16 6.5 30.5t17.5 26t26.5 18t32.5 6.5q35 0 59.5 -23.5t24.5 -57.5zM342 850q0 -35 -24.5 -58.5t-58.5 -23.5q-35 0 -59 24t-24 58q0 16 6.5 30.5t17.5 26t26 18t33 6.5q34 0 58.5 -23.5t24.5 -57.5z" />
    <glyph glyph-name="dotaccent.cap" 
d="M240 849q0 -36 -26 -60.5t-64 -24.5t-63.5 25t-25.5 60t25.5 60.5t63.5 25.5t64 -25t26 -61z" />
    <glyph glyph-name="hungarumlaut.cap" 
d="M90 764h-124l104 144h166zM310 764h-124l104 144h166z" />
    <glyph glyph-name="ring.cap" 
d="M209 856q0 25 -17 41.5t-42 16.5q-26 0 -42.5 -17t-16.5 -42q0 -24 17 -40.5t42 -16.5t42 16.5t17 41.5zM259 856q0 -23 -8.5 -43t-23.5 -34t-35 -22t-42 -8q-23 0 -42.5 8t-34.5 22t-23.5 33.5t-8.5 42.5q0 47 31.5 77.5t77.5 30.5q22 0 42 -8t35 -22.5t23.5 -34
t8.5 -42.5z" />
    <glyph glyph-name="breve.cap" 
d="M324 908q-3 -39 -18 -66.5t-38 -44.5t-53.5 -25t-65.5 -8q-34 0 -64.5 7.5t-53.5 25t-37.5 45t-17.5 66.5h84q3 -16 11.5 -26.5t21 -17t27.5 -9t30 -2.5q34 0 58.5 10t31.5 45h84v0z" />
    <glyph glyph-name="macron.cap" 
d="M-18 793v86h336v-86h-336z" />
    <glyph glyph-name="caron.alt" 
d="M195 513h-126l67 195h145z" />
    <glyph glyph-name="exclam.sc" horiz-adv-x="339" 
d="M266 83q0 -40 -28 -66.5t-69 -26.5q-39 0 -67.5 26t-28.5 66q0 19 7.5 36.5t20.5 30t30.5 20t37.5 7.5t38 -7t31 -20t20.5 -30t7.5 -36zM252 220h-166v343h166v-343z" />
    <glyph glyph-name="dollar.sc" horiz-adv-x="576" 
d="M324 124q23 3 33 14.5t10 27.5q0 32 -43 47v-89zM263 442q-20 -3 -30 -13.5t-10 -22.5q0 -17 10 -27t30 -17v80zM331 564q52 -3 94 -18t80 -42l-84 -107q-39 36 -88 44v-94q83 -20 132.5 -59.5t49.5 -111.5q0 -42 -14 -74t-39 -54.5t-60.5 -34.5t-77.5 -14v-57h-70v56
q-25 0 -52 4.5t-53 12.5t-49 20t-40 28l95 109q21 -23 48.5 -34.5t50.5 -13.5v103q-42 11 -74.5 24t-55 32t-34.5 46t-12 66q0 37 16 67.5t42 52t58.5 34.5t66.5 15v52h70v-52z" />
    <glyph glyph-name="percent.sc" horiz-adv-x="813" 
d="M273 -33l-88 42l332 587l91 -45zM662 138q0 21 -13.5 33t-33.5 12t-33.5 -12t-13.5 -33t13.5 -33t33.5 -12t33.5 12t13.5 33zM772 138q0 -32 -12.5 -59.5t-34.5 -48.5t-50.5 -33t-59.5 -12q-32 0 -60.5 12t-50 33t-34 48.5t-12.5 59.5t12.5 59.5t34 48t50 32.5t60.5 12
q31 0 59.5 -12t50.5 -32.5t34.5 -48t12.5 -59.5zM228 424q0 21 -13.5 33t-33.5 12t-33.5 -12t-13.5 -33t13.5 -33t33.5 -12t33.5 12t13.5 33zM338 424q0 -32 -12.5 -59.5t-34.5 -48.5t-50.5 -33t-59.5 -12q-32 0 -60.5 12t-50 33t-34 48.5t-12.5 59.5t12.5 59.5t34 48
t50 32.5t60.5 12q31 0 59.5 -12t50.5 -32.5t34.5 -48t12.5 -59.5z" />
    <glyph glyph-name="ampersand.sc" horiz-adv-x="693" 
d="M298 461q-16 0 -27 -10.5t-11 -26.5q0 -14 7 -26.5t21 -26.5q26 11 37.5 24.5t11.5 28.5q0 16 -11 26.5t-28 10.5zM246 225q-19 -8 -30 -23.5t-11 -37.5q0 -26 18.5 -40.5t41.5 -14.5q21 0 37.5 7t28.5 19zM521 140l141 -140h-198l-38 40q-35 -27 -74 -41.5t-96 -14.5
q-48 0 -86.5 12t-66.5 34.5t-43 55t-15 73.5q0 57 29.5 93t82.5 65q-23 23 -36 49t-13 61q0 32 13.5 60t38 48.5t59.5 32t79 11.5q83 0 132.5 -40t49.5 -108q0 -46 -27 -82.5t-79 -62.5l51 -52l48 63h194z" />
    <glyph glyph-name="zero.sc" horiz-adv-x="576" 
d="M288 433q-36 0 -55 -42t-19 -108t18.5 -108t55.5 -42t55.5 42t18.5 108q0 65 -18.5 107.5t-55.5 42.5zM288 -16q-61 0 -106.5 24t-76 65t-45.5 95.5t-15 114.5t15 114t45.5 94.5t76 64t106.5 23.5t106.5 -23.5t76 -64t45.5 -94.5t15 -114t-15 -114.5t-45.5 -95.5t-76 -65
t-106.5 -24z" />
    <glyph glyph-name="one.sc" horiz-adv-x="576" 
d="M238 375l-100 -75l-88 116l201 147h153v-563h-166v375z" />
    <glyph glyph-name="two.sc" horiz-adv-x="576" 
d="M290 310q26 23 36 42t10 39q0 19 -13.5 33.5t-36.5 14.5q-22 0 -39.5 -16t-22.5 -53l-158 22q5 45 25.5 79.5t52 58.5t70.5 36.5t81 12.5q40 0 78.5 -10.5t69 -31.5t49 -53.5t18.5 -77.5q0 -54 -24 -96t-78 -87l-105 -88h209v-135h-437v121z" />
    <glyph glyph-name="three.sc" horiz-adv-x="576" 
d="M419 293q51 -17 71.5 -50.5t20.5 -78.5q0 -47 -20 -81t-52 -56t-73.5 -32.5t-83.5 -10.5q-41 0 -79 8.5t-69 27t-54.5 47.5t-35.5 70l153 42q10 -30 30 -46.5t50 -16.5t47.5 14.5t17.5 41.5q0 29 -22 46t-63 17h-37v109h36q35 0 54.5 15.5t19.5 41.5q0 21 -14.5 34.5
t-38.5 13.5q-23 0 -40.5 -15t-23.5 -41l-154 36q11 39 33 67t52 46.5t65.5 27.5t73.5 9q42 0 81 -9.5t68.5 -29t47.5 -49.5t18 -71q0 -42 -19.5 -74.5t-59.5 -49.5v-3z" />
    <glyph glyph-name="four.sc" horiz-adv-x="576" 
d="M186 224h118v185h-2zM457 0h-153v104h-268v129l218 330h203v-339h73v-120h-73v-104z" />
    <glyph glyph-name="five.sc" horiz-adv-x="576" 
d="M512 187q0 -51 -18 -89t-48.5 -63.5t-72 -38t-89.5 -12.5q-87 0 -145.5 37.5t-84.5 113.5l151 46q11 -32 31.5 -46.5t43.5 -14.5q31 0 48.5 17.5t17.5 44.5q0 41 -26.5 58t-64.5 17q-14 0 -33 -2t-40 -6t-42 -9.5t-38 -11.5l14 335h367v-127h-219l-5 -71q12 3 29 4.5
t28 1.5q43 0 79 -11.5t62 -35t40.5 -58t14.5 -79.5z" />
    <glyph glyph-name="six.sc" horiz-adv-x="576" 
d="M287 263q-30 0 -50.5 -19.5t-21.5 -53.5t20.5 -52.5t51.5 -18.5q29 0 50.5 18.5t21.5 52.5t-21.5 53.5t-50.5 19.5zM296 368q8 3 17.5 4t17.5 1q41 0 76.5 -11.5t61.5 -34t40.5 -56t14.5 -78.5q0 -48 -18 -86.5t-49.5 -65.5t-75 -42t-94.5 -15t-94.5 15t-75 42.5
t-49.5 66.5t-18 88q0 53 22 101t53 94l114 172h200l-145 -193z" />
    <glyph glyph-name="seven.sc" horiz-adv-x="576" 
d="M115 0l222 424h-256v139h424v-128l-209 -435h-181z" />
    <glyph glyph-name="eight.sc" horiz-adv-x="576" 
d="M422 294q45 -17 70.5 -50.5t25.5 -81.5q0 -45 -18 -78.5t-49.5 -55.5t-73.5 -33t-89 -11t-88.5 11t-73 33t-50 55.5t-18.5 78.5q0 47 25.5 81t70.5 51v3q-38 16 -59 46.5t-21 70.5t16.5 71t45.5 52t68 31.5t84 10.5t84 -10.5t68 -30.5t45.5 -50.5t16.5 -70.5
q0 -43 -21 -73.5t-59 -46.5v-3zM288 233q-28 0 -46 -17t-18 -46t18 -46t46 -17q27 0 45.5 17t18.5 46t-18.5 46t-45.5 17zM288 459q-23 0 -38.5 -15t-15.5 -39t15 -39t39 -15q23 0 38.5 15t15.5 39t-15.5 39t-38.5 15z" />
    <glyph glyph-name="nine.sc" horiz-adv-x="576" 
d="M299 304q32 0 51.5 20t19.5 52t-19.5 52.5t-51.5 20.5t-52.5 -20.5t-20.5 -52.5t20.5 -52t52.5 -20zM279 193q-8 -2 -20 -3t-17 -1q-37 0 -69.5 12t-57 35t-39 57.5t-14.5 78.5q0 48 18 86t49.5 65t75 41.5t94.5 14.5t94.5 -14.5t75 -41t49 -64.5t17.5 -84q0 -43 -17 -88
t-45 -87l-131 -200h-201l140 191z" />
    <glyph glyph-name="question.sc" horiz-adv-x="500" 
d="M346 84q0 -40 -27.5 -67t-68.5 -27q-40 0 -68.5 26.5t-28.5 66.5q0 19 7.5 36.5t20.5 30t31 20t38 7.5t37.5 -7t30.5 -20t20.5 -30t7.5 -36zM167 220v19q0 29 12 53.5t45 48.5l23 17q32 23 32 49q0 11 -8.5 22.5t-27.5 11.5q-15 0 -26 -11t-14 -32l-156 18
q3 28 16.5 57.5t39 52.5t62.5 38t85 15t84 -13t60.5 -35t36.5 -52t12 -63q0 -42 -16 -73.5t-59 -62.5q-21 -15 -29.5 -26.5t-8.5 -24.5v-9h-163z" />
    <glyph glyph-name="a.sc" horiz-adv-x="641" 
d="M319 394l-64 -172h127zM235 563h174l234 -563h-181l-38 102h-210l-39 -102h-177z" />
    <glyph glyph-name="b.sc" horiz-adv-x="571" 
d="M233 340h58q25 0 42.5 13.5t17.5 39.5q0 20 -14 33.5t-48 13.5h-56v-100zM233 121h65q29 0 49.5 14t20.5 46q0 25 -17 39.5t-51 14.5h-67v-114zM312 563q40 0 76.5 -7t64.5 -24t44.5 -45.5t16.5 -72.5q0 -42 -20.5 -72t-57.5 -44v-3q101 -21 101 -130q0 -47 -19 -78.5
t-50.5 -51t-73 -27.5t-85.5 -8h-239v563h242z" />
    <glyph glyph-name="c.sc" horiz-adv-x="578" 
d="M460 383q-18 24 -48 36.5t-60 12.5t-55 -12t-43 -32.5t-28 -48t-10 -57.5t10 -57.5t28 -47.5t43.5 -32t57.5 -12q30 0 59.5 11t49.5 36l98 -121q-37 -36 -92 -55.5t-118 -19.5q-66 0 -123 20.5t-99.5 59t-66.5 93.5t-24 125q0 68 24.5 123t66.5 93.5t99 59.5t122 21
q30 0 60 -5.5t58 -16t51.5 -24.5t41.5 -32z" />
    <glyph glyph-name="d.sc" horiz-adv-x="655" 
d="M236 133h42q33 0 62.5 7.5t51.5 25.5t35 47t13 72q0 42 -12.5 70t-34 45t-50.5 24.5t-62 7.5h-45v-299zM70 0v563h218q64 0 123 -14t104.5 -46.5t73 -86t27.5 -133.5q0 -74 -27 -127.5t-72 -88t-103.5 -51t-120.5 -16.5h-223z" />
    <glyph glyph-name="e.sc" horiz-adv-x="535" 
d="M70 563h399v-127h-236v-90h223v-122h-223v-96h250v-128h-413v563z" />
    <glyph glyph-name="f.sc" horiz-adv-x="503" 
d="M236 332h207v-122h-206v-210h-167v563h392v-127h-226v-104z" />
    <glyph glyph-name="g.sc" horiz-adv-x="645" 
d="M358 -16q-69 0 -127.5 20.5t-101 59t-66.5 94t-24 125.5q0 67 24.5 122t67.5 93.5t101.5 59.5t125.5 21q73 0 129.5 -19.5t98.5 -54.5l-108 -123q-23 26 -52.5 39.5t-64.5 13.5q-32 0 -58.5 -11t-45.5 -31t-30 -48t-11 -63q0 -72 40 -113t107 -41q19 0 37.5 2.5t33.5 8.5
v76h-100v118h256v-295q-45 -23 -105 -38.5t-127 -15.5z" />
    <glyph glyph-name="h.sc" horiz-adv-x="656" 
d="M419 226h-182v-226h-167v563h167v-209h182v209h167v-563h-167v226z" />
    <glyph glyph-name="i.sc" horiz-adv-x="307" 
d="M70 563h167v-563h-167v563z" />
    <glyph glyph-name="j.sc" horiz-adv-x="476" 
d="M202 -16q-79 0 -132 42.5t-69 109.5l149 49q5 -30 18.5 -42.5t30.5 -12.5q25 0 34.5 15.5t9.5 42.5v375h167v-369q0 -39 -9.5 -77t-33.5 -67.5t-64 -47.5t-101 -18z" />
    <glyph glyph-name="k.sc" horiz-adv-x="623" 
d="M238 250h-2v-250h-166v563h166v-225h2l177 225h201l-228 -260l241 -303h-212z" />
    <glyph glyph-name="l.sc" horiz-adv-x="471" 
d="M70 563h167v-423h208v-140h-375v563z" />
    <glyph glyph-name="m.sc" horiz-adv-x="809" 
d="M230 346h-3l3 -346h-160v563h225l111 -328h4l106 328h223v-563h-165l3 346h-3l-115 -346h-117z" />
    <glyph glyph-name="n.sc" horiz-adv-x="672" 
d="M70 563h184l190 -323h2l-5 323h161v-563h-182l-191 319h-3l4 -319h-160v563z" />
    <glyph glyph-name="o.sc" horiz-adv-x="704" 
d="M490 283q0 27 -9 53t-26.5 46.5t-43.5 33t-60 12.5q-33 0 -58.5 -12.5t-42.5 -33t-25.5 -46.5t-8.5 -53q0 -28 8.5 -54.5t26 -47t43 -33t59.5 -12.5q33 0 59 12.5t43 33t26 47t9 54.5zM665 283q0 -68 -25 -123.5t-68 -94.5t-100 -60t-121 -21q-63 0 -120 21t-99.5 60
t-67.5 94.5t-25 123.5q0 67 25 122t67.5 93.5t99.5 59.5t120 21q64 0 121 -21t100 -59.5t68 -93.5t25 -122z" />
    <glyph glyph-name="p.sc" horiz-adv-x="555" 
d="M237 310h49q37 0 58.5 17t21.5 51q0 25 -18 41.5t-59 16.5h-52v-126zM237 0h-167v563h231q52 0 94.5 -10.5t73 -33t47.5 -56.5t17 -82q0 -50 -17 -87t-48 -61t-74 -36t-95 -12h-62v-185z" />
    <glyph glyph-name="q.sc" horiz-adv-x="709" 
d="M215 286q0 -67 36.5 -108.5t99.5 -41.5q33 0 58.5 11t43 31t26.5 47.5t9 60.5q0 30 -9.5 56t-27 46t-43 31.5t-57.5 11.5q-31 0 -56 -11.5t-43 -31t-27.5 -46t-9.5 -56.5zM588 128l107 5v-133h-349q-69 0 -125.5 18.5t-97 55t-62.5 90t-22 124.5q0 65 23.5 118.5t65.5 92
t99 59.5t124 21q69 0 126 -19t98.5 -55t64 -87.5t22.5 -115.5q0 -54 -19.5 -96.5t-54.5 -73.5v-4z" />
    <glyph glyph-name="r.sc" horiz-adv-x="568" 
d="M235 320h55q14 0 27 3t23.5 10t17 19t6.5 31q0 32 -21.5 42.5t-51.5 10.5h-56v-116zM70 563h235q47 0 88 -9t71.5 -29.5t48 -54t17.5 -81.5q0 -59 -27.5 -99.5t-74.5 -59.5l137 -230h-184l-108 200h-38v-200h-165v563z" />
    <glyph glyph-name="s.sc" horiz-adv-x="507" 
d="M378 395q-22 20 -50.5 35t-60.5 15q-23 0 -43.5 -10.5t-20.5 -34.5q0 -23 22 -34t73 -23q30 -7 60 -19t54 -31.5t39 -48t15 -69.5q0 -53 -20 -89.5t-52.5 -59t-72.5 -32.5t-80 -10q-64 0 -125.5 22t-102.5 65l96 108q23 -27 57.5 -44.5t72.5 -17.5q21 0 41 10.5t20 37.5
q0 26 -25 38t-79 26q-27 7 -54.5 18t-49.5 29.5t-35.5 46t-13.5 67.5q0 50 20 85.5t51.5 58.5t70.5 34t77 11q59 0 115.5 -20.5t95.5 -60.5z" />
    <glyph glyph-name="t.sc" horiz-adv-x="483" 
d="M325 0h-167v425h-153v138h473v-138h-153v-425z" />
    <glyph glyph-name="u.sc" horiz-adv-x="646" 
d="M321 -16q-60 0 -107 16.5t-80 47.5t-50.5 74t-17.5 96v345h167v-334q0 -45 23 -72t66 -27q44 0 67.5 27t23.5 72v334h167v-345q0 -53 -18 -96t-51.5 -74t-81.5 -47.5t-108 -16.5z" />
    <glyph glyph-name="v.sc" horiz-adv-x="589" 
d="M-4 563h181l118 -361h4l117 361h177l-218 -563h-165z" />
    <glyph glyph-name="w.sc" horiz-adv-x="878" 
d="M701 0h-165l-98 350h-2l-96 -350h-164l-172 563h177l85 -356h3l89 356h166l91 -356h2l87 356h170z" />
    <glyph glyph-name="x.sc" horiz-adv-x="610" 
d="M301 173l-105 -173h-196l198 297l-180 266h197l90 -152l90 152h189l-178 -266l204 -297h-202z" />
    <glyph glyph-name="y.sc" horiz-adv-x="566" 
d="M365 0h-167v222l-208 341h196l101 -201l100 201h189l-211 -341v-222z" />
    <glyph glyph-name="z.sc" horiz-adv-x="569" 
d="M53 126l245 301h-239v136h451v-122l-247 -302h253v-139h-463v126z" />
    <glyph glyph-name="agrave.sc" horiz-adv-x="641" 
d="M319 394l-64 -172h127zM235 563h174l234 -563h-181l-38 102h-210l-39 -102h-177zM270 622l-146 144h166l104 -144h-124z" />
    <glyph glyph-name="aacute.sc" horiz-adv-x="641" 
d="M319 394l-64 -172h127zM235 563h174l234 -563h-181l-38 102h-210l-39 -102h-177zM376 622h-124l104 144h166z" />
    <glyph glyph-name="acircumflex.sc" horiz-adv-x="641" 
d="M319 394l-64 -172h127zM235 563h174l234 -563h-181l-38 102h-210l-39 -102h-177zM387 622l-68 81l-68 -81h-128l124 144h148l122 -144h-130z" />
    <glyph glyph-name="atilde.sc" horiz-adv-x="641" 
d="M319 394l-64 -172h127zM235 563h174l234 -563h-181l-38 102h-210l-39 -102h-177zM506 758q-3 -26 -11 -50t-21.5 -42t-33.5 -29t-47 -11q-21 0 -41 6t-40 15q-20 11 -34.5 15.5t-28.5 4.5q-18 0 -27.5 -12t-14.5 -28h-72q3 26 11 49.5t21.5 41.5t33.5 28.5t47 10.5
q21 0 40.5 -5.5t39.5 -14.5q21 -10 36 -15t29 -5q19 0 28 11.5t14 29.5h71v0z" />
    <glyph glyph-name="adieresis.sc" horiz-adv-x="641" 
d="M319 394l-64 -172h127zM235 563h174l234 -563h-181l-38 102h-210l-39 -102h-177zM295 708q0 -35 -24.5 -58.5t-59.5 -23.5t-59 24t-24 58q0 16 6.5 30.5t17.5 26t26.5 18t32.5 6.5q35 0 59.5 -23.5t24.5 -57.5zM512 708q0 -35 -24.5 -58.5t-58.5 -23.5q-35 0 -59 24
t-24 58q0 16 6.5 30.5t17.5 26t26 18t33 6.5q34 0 58.5 -23.5t24.5 -57.5z" />
    <glyph glyph-name="amacron.sc" horiz-adv-x="641" 
d="M319 394l-64 -172h127zM235 563h174l234 -563h-181l-38 102h-210l-39 -102h-177zM152 651v86h336v-86h-336z" />
    <glyph glyph-name="abreve.sc" horiz-adv-x="641" 
d="M319 394l-64 -172h127zM235 563h174l234 -563h-181l-38 102h-210l-39 -102h-177zM494 766q-3 -39 -18 -66.5t-38 -44.5t-53.5 -25t-65.5 -8q-34 0 -64.5 7.5t-53.5 25t-37.5 45t-17.5 66.5h84q6 -29 32 -44q13 -6 28 -8.5t30 -2.5q34 0 58.5 10t31.5 45h84v0z" />
    <glyph glyph-name="aring.sc" horiz-adv-x="641" 
d="M319 394l-64 -172h127zM235 563h174l234 -563h-181l-38 102h-210l-39 -102h-177zM379 714q0 25 -17 41.5t-42 16.5q-26 0 -42.5 -17t-16.5 -42q0 -24 17 -40.5t42 -16.5t42 16.5t17 41.5zM429 714q0 -23 -8.5 -43t-23.5 -34t-35 -22t-42 -8q-23 0 -42.5 8t-34.5 22
t-23.5 33.5t-8.5 42.5q0 47 31.5 77.5t77.5 30.5q22 0 42 -8t35 -22.5t23.5 -34t8.5 -42.5z" />
    <glyph glyph-name="aogonek.sc" horiz-adv-x="641" 
d="M319 394l-64 -172h127zM582 -200q-23 -17 -53 -28.5t-62 -11.5q-20 0 -40.5 5t-36.5 16t-26 28.5t-10 41.5q0 22 10 43.5t26 40.5t35 35.5t37 29.5l-38 102h-210l-39 -102h-177l237 563h174l234 -563h-90q-39 -31 -67 -63t-28 -59q0 -16 10.5 -26t26.5 -10q14 0 28 5.5
t27 14.5l32 -62v0z" />
    <glyph glyph-name="ae.sc" horiz-adv-x="892" 
d="M309 232h118v198h-7zM427 112h-177l-64 -112h-191l329 563h502v-127h-236v-90h223v-122h-223v-96h250v-128h-413v112z" />
    <glyph glyph-name="cacute.sc" horiz-adv-x="578" 
d="M460 383q-18 24 -48 36.5t-60 12.5t-55 -12t-43 -32.5t-28 -48t-10 -57.5t10 -57.5t28 -47.5t43.5 -32t57.5 -12q30 0 59.5 11t49.5 36l98 -121q-37 -36 -92 -55.5t-118 -19.5q-66 0 -123 20.5t-99.5 59t-66.5 93.5t-24 125q0 68 24.5 123t66.5 93.5t99 59.5t122 21
q30 0 60 -5.5t58 -16t51.5 -24.5t41.5 -32zM369 622h-124l104 144h166z" />
    <glyph glyph-name="ccircumflex.sc" horiz-adv-x="578" 
d="M460 383q-18 24 -48 36.5t-60 12.5t-55 -12t-43 -32.5t-28 -48t-10 -57.5t10 -57.5t28 -47.5t43.5 -32t57.5 -12q30 0 59.5 11t49.5 36l98 -121q-37 -36 -92 -55.5t-118 -19.5q-66 0 -123 20.5t-99.5 59t-66.5 93.5t-24 125q0 68 24.5 123t66.5 93.5t99 59.5t122 21
q30 0 60 -5.5t58 -16t51.5 -24.5t41.5 -32zM417 622l-68 81l-68 -81h-128l124 144h148l122 -144h-130z" />
    <glyph glyph-name="ccaron.sc" horiz-adv-x="578" 
d="M460 383q-18 24 -48 36.5t-60 12.5t-55 -12t-43 -32.5t-28 -48t-10 -57.5t10 -57.5t28 -47.5t43.5 -32t57.5 -12q30 0 59.5 11t49.5 36l98 -121q-37 -36 -92 -55.5t-118 -19.5q-66 0 -123 20.5t-99.5 59t-66.5 93.5t-24 125q0 68 24.5 123t66.5 93.5t99 59.5t122 21
q30 0 60 -5.5t58 -16t51.5 -24.5t41.5 -32zM425 622h-147l-124 144h130l68 -81l68 81h128z" />
    <glyph glyph-name="cdotaccent.sc" horiz-adv-x="578" 
d="M460 383q-18 24 -48 36.5t-60 12.5t-55 -12t-43 -32.5t-28 -48t-10 -57.5t10 -57.5t28 -47.5t43.5 -32t57.5 -12q30 0 59.5 11t49.5 36l98 -121q-37 -36 -92 -55.5t-118 -19.5q-66 0 -123 20.5t-99.5 59t-66.5 93.5t-24 125q0 68 24.5 123t66.5 93.5t99 59.5t122 21
q30 0 60 -5.5t58 -16t51.5 -24.5t41.5 -32zM441 707q0 -36 -26 -60.5t-64 -24.5t-63.5 25t-25.5 60t25.5 60.5t63.5 25.5t64 -25t26 -61z" />
    <glyph glyph-name="ccedilla.sc" horiz-adv-x="578" 
d="M463 -142q0 -29 -14 -48t-36 -30t-47.5 -15.5t-49.5 -4.5q-31 0 -63.5 7t-55.5 18l27 60q19 -9 41.5 -14t42.5 -5q16 0 33 6.5t17 26.5q0 18 -16 23.5t-31 5.5q-9 0 -20 -1.5t-20 -4.5l-31 29l58 77q-56 7 -103.5 30.5t-82 61t-54 88.5t-19.5 114q0 68 24.5 123
t66.5 93.5t99 59.5t122 21q30 0 60 -5.5t58 -16t51.5 -24.5t41.5 -32l-102 -118q-18 24 -48 36.5t-60 12.5t-55 -12t-43 -32.5t-28 -48t-10 -57.5t10 -57.5t28 -47.5t43.5 -32t57.5 -12q30 0 59.5 11t49.5 36l98 -121q-33 -32 -81 -51t-104 -23l-35 -45q5 1 9 1h9
q18 0 36.5 -3.5t33 -12.5t24 -25.5t9.5 -41.5z" />
    <glyph glyph-name="dcaron.sc" horiz-adv-x="655" 
d="M236 133h42q33 0 62.5 7.5t51.5 25.5t35 47t13 72q0 42 -12.5 70t-34 45t-50.5 24.5t-62 7.5h-45v-299zM70 0v563h218q64 0 123 -14t104.5 -46.5t73 -86t27.5 -133.5q0 -74 -27 -127.5t-72 -88t-103.5 -51t-120.5 -16.5h-223zM381 622h-147l-124 144h130l68 -81l68 81
h128z" />
    <glyph glyph-name="dcroat.sc" horiz-adv-x="655" 
d="M236 340h99v-105h-99v-103h42q33 0 62.5 7.5t51.5 25.5t35 47t13 72q0 42 -12.5 70t-34 45.5t-50.5 25t-62 7.5h-45v-92zM70 0v235h-62v105h62v223h218q64 0 123 -14t104.5 -46.5t73 -86t27.5 -133.5q0 -74 -27 -127.5t-72 -88t-103.5 -51t-120.5 -16.5h-223z" />
    <glyph glyph-name="eth.sc" horiz-adv-x="655" 
d="M236 340h99v-105h-99v-103h42q33 0 62.5 7.5t51.5 25.5t35 47t13 72q0 42 -12.5 70t-34 45.5t-50.5 25t-62 7.5h-45v-92zM70 0v235h-62v105h62v223h218q64 0 123 -14t104.5 -46.5t73 -86t27.5 -133.5q0 -74 -27 -127.5t-72 -88t-103.5 -51t-120.5 -16.5h-223z" />
    <glyph glyph-name="egrave.sc" horiz-adv-x="535" 
d="M70 563h399v-127h-236v-90h223v-122h-223v-96h250v-128h-413v563zM228 622l-146 144h166l104 -144h-124z" />
    <glyph glyph-name="eacute.sc" horiz-adv-x="535" 
d="M70 563h399v-127h-236v-90h223v-122h-223v-96h250v-128h-413v563zM322 622h-124l104 144h166z" />
    <glyph glyph-name="ecircumflex.sc" horiz-adv-x="535" 
d="M70 563h399v-127h-236v-90h223v-122h-223v-96h250v-128h-413v563zM334 622l-68 81l-68 -81h-128l124 144h148l122 -144h-130z" />
    <glyph glyph-name="ecaron.sc" horiz-adv-x="535" 
d="M70 563h399v-127h-236v-90h223v-122h-223v-96h250v-128h-413v563zM345 622h-147l-124 144h130l68 -81l68 81h128z" />
    <glyph glyph-name="edieresis.sc" horiz-adv-x="535" 
d="M70 563h399v-127h-236v-90h223v-122h-223v-96h250v-128h-413v563zM242 708q0 -35 -24.5 -58.5t-59.5 -23.5t-59 24t-24 58q0 16 6.5 30.5t17.5 26t26.5 18t32.5 6.5q35 0 59.5 -23.5t24.5 -57.5zM459 708q0 -35 -24.5 -58.5t-58.5 -23.5q-35 0 -59 24t-24 58
q0 16 6.5 30.5t17.5 26t26 18t33 6.5q34 0 58.5 -23.5t24.5 -57.5z" />
    <glyph glyph-name="emacron.sc" horiz-adv-x="535" 
d="M70 563h399v-127h-236v-90h223v-122h-223v-96h250v-128h-413v563zM101 651v86h336v-86h-336z" />
    <glyph glyph-name="ebreve.sc" horiz-adv-x="535" 
d="M70 563h399v-127h-236v-90h223v-122h-223v-96h250v-128h-413v563zM445 766q-3 -39 -18 -66.5t-38 -44.5t-53.5 -25t-65.5 -8q-34 0 -64.5 7.5t-53.5 25t-37.5 45t-17.5 66.5h84q3 -16 11.5 -26.5t21 -17t27.5 -9t30 -2.5q34 0 58.5 10t31.5 45h84v0z" />
    <glyph glyph-name="edotaccent.sc" horiz-adv-x="535" 
d="M70 563h399v-127h-236v-90h223v-122h-223v-96h250v-128h-413v563zM361 707q0 -36 -26 -60.5t-64 -24.5t-63.5 25t-25.5 60t25.5 60.5t63.5 25.5t64 -25t26 -61z" />
    <glyph glyph-name="eogonek.sc" horiz-adv-x="535" 
d="M70 563h399v-127h-236v-90h223v-122h-223v-96h250v-128h-23q-39 -31 -67 -63t-28 -59q0 -16 10.5 -26t26.5 -10q14 0 28 5.5t27 14.5l32 -62q-23 -17 -53 -28.5t-62 -11.5q-20 0 -40.5 5t-36.5 16t-26 28.5t-10 41.5q0 22 10 43.5t26 40.5t35 35.5t37 29.5h-299v563z" />
    <glyph glyph-name="gcircumflex.sc" horiz-adv-x="645" 
d="M358 -16q-69 0 -127.5 20.5t-101 59t-66.5 94t-24 125.5q0 67 24.5 122t67.5 93.5t101.5 59.5t125.5 21q73 0 129.5 -19.5t98.5 -54.5l-108 -123q-23 26 -52.5 39.5t-64.5 13.5q-32 0 -58.5 -11t-45.5 -31t-30 -48t-11 -63q0 -72 40 -113t107 -41q19 0 37.5 2.5t33.5 8.5
v76h-100v118h256v-295q-45 -23 -105 -38.5t-127 -15.5zM427 622l-68 81l-68 -81h-128l124 144h148l122 -144h-130z" />
    <glyph glyph-name="gbreve.sc" horiz-adv-x="645" 
d="M358 -16q-69 0 -127.5 20.5t-101 59t-66.5 94t-24 125.5q0 67 24.5 122t67.5 93.5t101.5 59.5t125.5 21q73 0 129.5 -19.5t98.5 -54.5l-108 -123q-23 26 -52.5 39.5t-64.5 13.5q-32 0 -58.5 -11t-45.5 -31t-30 -48t-11 -63q0 -72 40 -113t107 -41q19 0 37.5 2.5t33.5 8.5
v76h-100v118h256v-295q-45 -23 -105 -38.5t-127 -15.5zM536 766q-3 -39 -18 -66.5t-38 -44.5t-53.5 -25t-65.5 -8q-34 0 -64.5 7.5t-53.5 25t-37.5 45t-17.5 66.5h84q3 -16 11.5 -26.5t21 -17t27.5 -9t30 -2.5q34 0 58.5 10t31.5 45h84v0z" />
    <glyph glyph-name="gdotaccent.sc" horiz-adv-x="645" 
d="M358 -16q-69 0 -127.5 20.5t-101 59t-66.5 94t-24 125.5q0 67 24.5 122t67.5 93.5t101.5 59.5t125.5 21q73 0 129.5 -19.5t98.5 -54.5l-108 -123q-23 26 -52.5 39.5t-64.5 13.5q-32 0 -58.5 -11t-45.5 -31t-30 -48t-11 -63q0 -72 40 -113t107 -41q19 0 37.5 2.5t33.5 8.5
v76h-100v118h256v-295q-45 -23 -105 -38.5t-127 -15.5zM451 707q0 -36 -26 -60.5t-64 -24.5t-63.5 25t-25.5 60t25.5 60.5t63.5 25.5t64 -25t26 -61z" />
    <glyph glyph-name="gcommaaccent.sc" horiz-adv-x="645" 
d="M358 -16q-69 0 -127.5 20.5t-101 59t-66.5 94t-24 125.5q0 67 24.5 122t67.5 93.5t101.5 59.5t125.5 21q73 0 129.5 -19.5t98.5 -54.5l-108 -123q-23 26 -52.5 39.5t-64.5 13.5q-32 0 -58.5 -11t-45.5 -31t-30 -48t-11 -63q0 -72 40 -113t107 -41q19 0 37.5 2.5t33.5 8.5
v76h-100v118h256v-295q-45 -23 -105 -38.5t-127 -15.5zM332 -240h-126l67 195h145z" />
    <glyph glyph-name="hcircumflex.sc" horiz-adv-x="656" 
d="M419 226h-182v-226h-167v563h167v-209h182v209h167v-563h-167v226zM397 622l-68 81l-68 -81h-128l124 144h148l122 -144h-130z" />
    <glyph glyph-name="hbar.sc" horiz-adv-x="656" 
d="M419 344v66h-182v-66h182zM419 216h-182v-216h-167v563h167v-75h182v75h167v-563h-167v216z" />
    <glyph glyph-name="igrave.sc" horiz-adv-x="307" 
d="M70 563h167v-563h-167v563zM97 622l-146 144h166l104 -144h-124z" />
    <glyph glyph-name="iacute.sc" horiz-adv-x="307" 
d="M70 563h167v-563h-167v563zM208 622h-124l104 144h166z" />
    <glyph glyph-name="icircumflex.sc" horiz-adv-x="307" 
d="M70 563h167v-563h-167v563zM221 622l-68 81l-68 -81h-128l124 144h148l122 -144h-130z" />
    <glyph glyph-name="itilde.sc" horiz-adv-x="307" 
d="M70 563h167v-563h-167v563zM340 758q-3 -26 -11 -50t-21.5 -42t-33.5 -29t-47 -11q-21 0 -41 6t-40 15q-20 11 -34.5 15.5t-28.5 4.5q-18 0 -27.5 -12t-14.5 -28h-72q3 26 11 49.5t21.5 41.5t33.5 28.5t47 10.5q21 0 40.5 -5.5t39.5 -14.5q21 -10 36 -15t29 -5
q19 0 28 11.5t14 29.5h71v0z" />
    <glyph glyph-name="idieresis.sc" horiz-adv-x="307" 
d="M70 563h167v-563h-167v563zM129 708q0 -35 -24.5 -58.5t-59.5 -23.5t-59 24t-24 58q0 16 6.5 30.5t17.5 26t26.5 18t32.5 6.5q35 0 59.5 -23.5t24.5 -57.5zM346 708q0 -35 -24.5 -58.5t-58.5 -23.5q-35 0 -59 24t-24 58q0 16 6.5 30.5t17.5 26t26 18t33 6.5
q34 0 58.5 -23.5t24.5 -57.5z" />
    <glyph glyph-name="imacron.sc" horiz-adv-x="307" 
d="M70 563h167v-563h-167v563zM-14 651v86h336v-86h-336z" />
    <glyph glyph-name="idotaccent.sc" horiz-adv-x="307" 
d="M70 563h167v-563h-167v563zM240 707q0 -36 -26 -60.5t-64 -24.5t-63.5 25t-25.5 60t25.5 60.5t63.5 25.5t64 -25t26 -61z" />
    <glyph glyph-name="iogonek.sc" horiz-adv-x="307" 
d="M70 563h167v-563q-39 -31 -67 -63t-28 -59q0 -16 10.5 -26t26.5 -10q14 0 28 5.5t27 14.5l32 -62q-23 -17 -53 -28.5t-62 -11.5q-20 0 -40.5 5t-36.5 16t-26 28.5t-10 41.5q0 22 10 43.5t26 40.5t35 35.5t37 29.5h-76v563z" />
    <glyph glyph-name="jcircumflex.sc" horiz-adv-x="476" 
d="M202 -16q-79 0 -132 42.5t-69 109.5l149 49q5 -30 18.5 -42.5t30.5 -12.5q25 0 34.5 15.5t9.5 42.5v375h167v-369q0 -39 -9.5 -77t-33.5 -67.5t-64 -47.5t-101 -18zM393 622l-68 81l-68 -81h-128l124 144h148l122 -144h-130z" />
    <glyph glyph-name="kcommaaccent.sc" horiz-adv-x="623" 
d="M238 250h-2v-250h-166v563h166v-225h2l177 225h201l-228 -260l241 -303h-212zM301 -240h-126l67 195h145z" />
    <glyph glyph-name="lacute.sc" horiz-adv-x="471" 
d="M70 563h167v-423h208v-140h-375v563zM214 622h-124l104 144h166z" />
    <glyph glyph-name="lcaron.sc" horiz-adv-x="471" 
d="M70 563h167v-423h208v-140h-375v563zM398 368h-126l67 195h145z" />
    <glyph glyph-name="lcommaaccent.sc" horiz-adv-x="471" 
d="M70 563h167v-423h208v-140h-375v563zM243 -240h-126l67 195h145z" />
    <glyph glyph-name="lslash.sc" horiz-adv-x="471" 
d="M70 171l-64 -50v142l64 49v251h167v-121l107 83v-141l-107 -83v-161h208v-140h-375v171z" />
    <glyph glyph-name="ldot.sc" horiz-adv-x="471" 
d="M70 563h167v-423h208v-140h-375v563zM477 317q0 -36 -26 -60.5t-64 -24.5t-63.5 25t-25.5 60t25.5 60.5t63.5 25.5t64 -25t26 -61z" />
    <glyph glyph-name="nacute.sc" horiz-adv-x="672" 
d="M70 563h184l190 -323h2l-5 323h161v-563h-182l-191 319h-3l4 -319h-160v563zM372 622h-124l104 144h166z" />
    <glyph glyph-name="ncaron.sc" horiz-adv-x="672" 
d="M70 563h184l190 -323h2l-5 323h161v-563h-182l-191 319h-3l4 -319h-160v563zM410 622h-147l-124 144h130l68 -81l68 81h128z" />
    <glyph glyph-name="ntilde.sc" horiz-adv-x="672" 
d="M70 563h184l190 -323h2l-5 323h161v-563h-182l-191 319h-3l4 -319h-160v563zM518 758q-3 -26 -11 -50t-21.5 -42t-33.5 -29t-47 -11q-21 0 -41 6t-40 15q-20 11 -34.5 15.5t-28.5 4.5q-18 0 -27.5 -12t-14.5 -28h-72q3 26 11 49.5t21.5 41.5t33.5 28.5t47 10.5
q21 0 40.5 -5.5t39.5 -14.5q21 -10 36 -15t29 -5q19 0 28 11.5t14 29.5h71v0z" />
    <glyph glyph-name="ncommaaccent.sc" horiz-adv-x="672" 
d="M70 563h184l190 -323h2l-5 323h161v-563h-182l-191 319h-3l4 -319h-160v563zM323 -240h-126l67 195h145z" />
    <glyph glyph-name="ograve.sc" horiz-adv-x="704" 
d="M490 283q0 27 -9 53t-26.5 46.5t-43.5 33t-60 12.5q-33 0 -58.5 -12.5t-42.5 -33t-25.5 -46.5t-8.5 -53q0 -28 8.5 -54.5t26 -47t43 -33t59.5 -12.5q33 0 59 12.5t43 33t26 47t9 54.5zM665 283q0 -68 -25 -123.5t-68 -94.5t-100 -60t-121 -21q-63 0 -120 21t-99.5 60
t-67.5 94.5t-25 123.5q0 67 25 122t67.5 93.5t99.5 59.5t120 21q64 0 121 -21t100 -59.5t68 -93.5t25 -122zM300 622l-146 144h166l104 -144h-124z" />
    <glyph glyph-name="oacute.sc" horiz-adv-x="704" 
d="M490 283q0 27 -9 53t-26.5 46.5t-43.5 33t-60 12.5q-33 0 -58.5 -12.5t-42.5 -33t-25.5 -46.5t-8.5 -53q0 -28 8.5 -54.5t26 -47t43 -33t59.5 -12.5q33 0 59 12.5t43 33t26 47t9 54.5zM665 283q0 -68 -25 -123.5t-68 -94.5t-100 -60t-121 -21q-63 0 -120 21t-99.5 60
t-67.5 94.5t-25 123.5q0 67 25 122t67.5 93.5t99.5 59.5t120 21q64 0 121 -21t100 -59.5t68 -93.5t25 -122zM400 622h-124l104 144h166z" />
    <glyph glyph-name="ocircumflex.sc" horiz-adv-x="704" 
d="M490 283q0 27 -9 53t-26.5 46.5t-43.5 33t-60 12.5q-33 0 -58.5 -12.5t-42.5 -33t-25.5 -46.5t-8.5 -53q0 -28 8.5 -54.5t26 -47t43 -33t59.5 -12.5q33 0 59 12.5t43 33t26 47t9 54.5zM665 283q0 -68 -25 -123.5t-68 -94.5t-100 -60t-121 -21q-63 0 -120 21t-99.5 60
t-67.5 94.5t-25 123.5q0 67 25 122t67.5 93.5t99.5 59.5t120 21q64 0 121 -21t100 -59.5t68 -93.5t25 -122zM418 622l-68 81l-68 -81h-128l124 144h148l122 -144h-130z" />
    <glyph glyph-name="otilde.sc" horiz-adv-x="704" 
d="M490 283q0 27 -9 53t-26.5 46.5t-43.5 33t-60 12.5q-33 0 -58.5 -12.5t-42.5 -33t-25.5 -46.5t-8.5 -53q0 -28 8.5 -54.5t26 -47t43 -33t59.5 -12.5q33 0 59 12.5t43 33t26 47t9 54.5zM665 283q0 -68 -25 -123.5t-68 -94.5t-100 -60t-121 -21q-63 0 -120 21t-99.5 60
t-67.5 94.5t-25 123.5q0 67 25 122t67.5 93.5t99.5 59.5t120 21q64 0 121 -21t100 -59.5t68 -93.5t25 -122zM538 758q-3 -26 -11 -50t-21.5 -42t-33.5 -29t-47 -11q-21 0 -41 6t-40 15q-20 11 -34.5 15.5t-28.5 4.5q-18 0 -27.5 -12t-14.5 -28h-72q3 26 11 49.5t21.5 41.5
t33.5 28.5t47 10.5q21 0 40.5 -5.5t39.5 -14.5q21 -10 36 -15t29 -5q19 0 28 11.5t14 29.5h71v0z" />
    <glyph glyph-name="odieresis.sc" horiz-adv-x="704" 
d="M490 283q0 27 -9 53t-26.5 46.5t-43.5 33t-60 12.5q-33 0 -58.5 -12.5t-42.5 -33t-25.5 -46.5t-8.5 -53q0 -28 8.5 -54.5t26 -47t43 -33t59.5 -12.5q33 0 59 12.5t43 33t26 47t9 54.5zM665 283q0 -68 -25 -123.5t-68 -94.5t-100 -60t-121 -21q-63 0 -120 21t-99.5 60
t-67.5 94.5t-25 123.5q0 67 25 122t67.5 93.5t99.5 59.5t120 21q64 0 121 -21t100 -59.5t68 -93.5t25 -122zM327 708q0 -35 -24.5 -58.5t-59.5 -23.5t-59 24t-24 58q0 16 6.5 30.5t17.5 26t26.5 18t32.5 6.5q35 0 59.5 -23.5t24.5 -57.5zM544 708q0 -35 -24.5 -58.5
t-58.5 -23.5q-35 0 -59 24t-24 58q0 16 6.5 30.5t17.5 26t26 18t33 6.5q34 0 58.5 -23.5t24.5 -57.5z" />
    <glyph glyph-name="omacron.sc" horiz-adv-x="704" 
d="M490 283q0 27 -9 53t-26.5 46.5t-43.5 33t-60 12.5q-33 0 -58.5 -12.5t-42.5 -33t-25.5 -46.5t-8.5 -53q0 -28 8.5 -54.5t26 -47t43 -33t59.5 -12.5q33 0 59 12.5t43 33t26 47t9 54.5zM665 283q0 -68 -25 -123.5t-68 -94.5t-100 -60t-121 -21q-63 0 -120 21t-99.5 60
t-67.5 94.5t-25 123.5q0 67 25 122t67.5 93.5t99.5 59.5t120 21q64 0 121 -21t100 -59.5t68 -93.5t25 -122zM184 651v86h336v-86h-336z" />
    <glyph glyph-name="obreve.sc" horiz-adv-x="704" 
d="M490 283q0 27 -9 53t-26.5 46.5t-43.5 33t-60 12.5q-33 0 -58.5 -12.5t-42.5 -33t-25.5 -46.5t-8.5 -53q0 -28 8.5 -54.5t26 -47t43 -33t59.5 -12.5q33 0 59 12.5t43 33t26 47t9 54.5zM665 283q0 -68 -25 -123.5t-68 -94.5t-100 -60t-121 -21q-63 0 -120 21t-99.5 60
t-67.5 94.5t-25 123.5q0 67 25 122t67.5 93.5t99.5 59.5t120 21q64 0 121 -21t100 -59.5t68 -93.5t25 -122zM526 766q-3 -39 -18 -66.5t-38 -44.5t-53.5 -25t-65.5 -8q-34 0 -64.5 7.5t-53.5 25t-37.5 45t-17.5 66.5h84q3 -16 11.5 -26.5t21 -17t27.5 -9t30 -2.5
q34 0 58.5 10t31.5 45h84v0z" />
    <glyph glyph-name="ohungarumlaut.sc" horiz-adv-x="704" 
d="M490 283q0 27 -9 53t-26.5 46.5t-43.5 33t-60 12.5q-33 0 -58.5 -12.5t-42.5 -33t-25.5 -46.5t-8.5 -53q0 -28 8.5 -54.5t26 -47t43 -33t59.5 -12.5q33 0 59 12.5t43 33t26 47t9 54.5zM665 283q0 -68 -25 -123.5t-68 -94.5t-100 -60t-121 -21q-63 0 -120 21t-99.5 60
t-67.5 94.5t-25 123.5q0 67 25 122t67.5 93.5t99.5 59.5t120 21q64 0 121 -21t100 -59.5t68 -93.5t25 -122zM309 622h-124l104 144h166zM529 622h-124l104 144h166z" />
    <glyph glyph-name="oslash.sc" horiz-adv-x="704" 
d="M493 284q0 40 -13 69l-197 -205q14 -8 32 -12.5t38 -4.5q61 0 100.5 41.5t39.5 111.5zM213 284q0 -21 3 -40t10 -33l198 205q-30 19 -71 19q-30 0 -56 -11t-44.5 -31t-29 -48t-10.5 -61zM39 283q0 67 25 122t67.5 93.5t99.5 59.5t120 21q52 0 98 -13.5t79 -36.5l69 72
l59 -59l-63 -66q35 -35 53.5 -84t18.5 -109q0 -68 -25 -123.5t-68 -94.5t-100 -60t-121 -21q-103 0 -177 51l-75 -78l-58 59l69 72q-34 36 -52.5 85.5t-18.5 109.5z" />
    <glyph glyph-name="oe.sc" horiz-adv-x="852" 
d="M220 283q0 -71 39.5 -105.5t100.5 -34.5h27v279h-27q-61 0 -100.5 -36t-39.5 -103zM360 0q-68 0 -126 19t-100 55.5t-66 89t-24 119.5t24 119.5t66 88t100 54t126 18.5h426v-127h-236v-90h223v-122h-223v-96h250v-128h-440v0z" />
    <glyph glyph-name="racute.sc" horiz-adv-x="568" 
d="M235 320h55q14 0 27 3t23.5 10t17 19t6.5 31q0 32 -21.5 42.5t-51.5 10.5h-56v-116zM70 563h235q47 0 88 -9t71.5 -29.5t48 -54t17.5 -81.5q0 -59 -27.5 -99.5t-74.5 -59.5l137 -230h-184l-108 200h-38v-200h-165v563zM314 622h-124l104 144h166z" />
    <glyph glyph-name="rcaron.sc" horiz-adv-x="568" 
d="M235 320h55q14 0 27 3t23.5 10t17 19t6.5 31q0 32 -21.5 42.5t-51.5 10.5h-56v-116zM70 563h235q47 0 88 -9t71.5 -29.5t48 -54t17.5 -81.5q0 -59 -27.5 -99.5t-74.5 -59.5l137 -230h-184l-108 200h-38v-200h-165v563zM364 622h-147l-124 144h130l68 -81l68 81h128z" />
    <glyph glyph-name="rcommaaccent.sc" horiz-adv-x="568" 
d="M235 320h55q14 0 27 3t23.5 10t17 19t6.5 31q0 32 -21.5 42.5t-51.5 10.5h-56v-116zM70 563h235q47 0 88 -9t71.5 -29.5t48 -54t17.5 -81.5q0 -59 -27.5 -99.5t-74.5 -59.5l137 -230h-184l-108 200h-38v-200h-165v563zM286 -240h-126l67 195h145z" />
    <glyph glyph-name="sacute.sc" horiz-adv-x="507" 
d="M378 395q-22 20 -50.5 35t-60.5 15q-23 0 -43.5 -10.5t-20.5 -34.5q0 -23 22 -34t73 -23q30 -7 60 -19t54 -31.5t39 -48t15 -69.5q0 -53 -20 -89.5t-52.5 -59t-72.5 -32.5t-80 -10q-64 0 -125.5 22t-102.5 65l96 108q23 -27 57.5 -44.5t72.5 -17.5q21 0 41 10.5t20 37.5
q0 26 -25 38t-79 26q-27 7 -54.5 18t-49.5 29.5t-35.5 46t-13.5 67.5q0 50 20 85.5t51.5 58.5t70.5 34t77 11q59 0 115.5 -20.5t95.5 -60.5zM295 622h-124l104 144h166z" />
    <glyph glyph-name="scircumflex.sc" horiz-adv-x="507" 
d="M378 395q-22 20 -50.5 35t-60.5 15q-23 0 -43.5 -10.5t-20.5 -34.5q0 -23 22 -34t73 -23q30 -7 60 -19t54 -31.5t39 -48t15 -69.5q0 -53 -20 -89.5t-52.5 -59t-72.5 -32.5t-80 -10q-64 0 -125.5 22t-102.5 65l96 108q23 -27 57.5 -44.5t72.5 -17.5q21 0 41 10.5t20 37.5
q0 26 -25 38t-79 26q-27 7 -54.5 18t-49.5 29.5t-35.5 46t-13.5 67.5q0 50 20 85.5t51.5 58.5t70.5 34t77 11q59 0 115.5 -20.5t95.5 -60.5zM327 622l-68 81l-68 -81h-128l124 144h148l122 -144h-130z" />
    <glyph glyph-name="scaron.sc" horiz-adv-x="507" 
d="M378 395q-22 20 -50.5 35t-60.5 15q-23 0 -43.5 -10.5t-20.5 -34.5q0 -23 22 -34t73 -23q30 -7 60 -19t54 -31.5t39 -48t15 -69.5q0 -53 -20 -89.5t-52.5 -59t-72.5 -32.5t-80 -10q-64 0 -125.5 22t-102.5 65l96 108q23 -27 57.5 -44.5t72.5 -17.5q21 0 41 10.5t20 37.5
q0 26 -25 38t-79 26q-27 7 -54.5 18t-49.5 29.5t-35.5 46t-13.5 67.5q0 50 20 85.5t51.5 58.5t70.5 34t77 11q59 0 115.5 -20.5t95.5 -60.5zM335 622h-147l-124 144h130l68 -81l68 81h128z" />
    <glyph glyph-name="scedilla.sc" horiz-adv-x="507" 
d="M367 -142q0 -29 -14 -48t-36 -30t-47.5 -15.5t-49.5 -4.5q-31 0 -63.5 7t-55.5 18l27 60q19 -9 41.5 -14t42.5 -5q16 0 33 6.5t17 26.5q0 18 -16 23.5t-31 5.5q-9 0 -20 -1.5t-20 -4.5l-31 29l56 75q-54 6 -103.5 27.5t-83.5 57.5l96 108q23 -27 57.5 -44.5t72.5 -17.5
q21 0 41 10.5t20 37.5q0 26 -25 38t-79 26q-27 7 -54.5 18t-49.5 29.5t-35.5 46t-13.5 67.5q0 50 20 85.5t51.5 58.5t70.5 34t77 11q59 0 115.5 -20.5t95.5 -60.5l-95 -103q-22 20 -50.5 35t-60.5 15q-23 0 -43.5 -10.5t-20.5 -34.5q0 -23 22 -34t73 -23q30 -7 60 -19
t54 -31.5t39 -48t15 -69.5q0 -47 -15.5 -80.5t-41 -56t-59 -35t-68.5 -16.5l-36 -47q5 1 9 1h9q18 0 36.5 -3.5t33 -12.5t24 -25.5t9.5 -41.5z" />
    <glyph glyph-name="scommaaccent.sc" horiz-adv-x="507" 
d="M378 395q-22 20 -50.5 35t-60.5 15q-23 0 -43.5 -10.5t-20.5 -34.5q0 -23 22 -34t73 -23q30 -7 60 -19t54 -31.5t39 -48t15 -69.5q0 -53 -20 -89.5t-52.5 -59t-72.5 -32.5t-80 -10q-64 0 -125.5 22t-102.5 65l96 108q23 -27 57.5 -44.5t72.5 -17.5q21 0 41 10.5t20 37.5
q0 26 -25 38t-79 26q-27 7 -54.5 18t-49.5 29.5t-35.5 46t-13.5 67.5q0 50 20 85.5t51.5 58.5t70.5 34t77 11q59 0 115.5 -20.5t95.5 -60.5zM251 -240h-126l67 195h145z" />
    <glyph glyph-name="germandbls.sc" horiz-adv-x="1013" 
d="M884 395q-22 20 -50.5 35t-60.5 15q-23 0 -43.5 -10.5t-20.5 -34.5q0 -23 22 -34t73 -23q30 -7 60 -19t54 -31.5t39 -48t15 -69.5q0 -53 -20 -89.5t-52.5 -59t-72.5 -32.5t-80 -10q-64 0 -125.5 22t-102.5 65l96 108q23 -27 57.5 -44.5t72.5 -17.5q21 0 41 10.5t20 37.5
q0 26 -25 38t-79 26q-27 7 -54.5 18t-49.5 29.5t-35.5 46t-13.5 67.5q0 50 20 85.5t51.5 58.5t70.5 34t77 11q59 0 115.5 -20.5t95.5 -60.5zM378 395q-22 20 -50.5 35t-60.5 15q-23 0 -43.5 -10.5t-20.5 -34.5q0 -23 22 -34t73 -23q30 -7 60 -19t54 -31.5t39 -48t15 -69.5
q0 -53 -20 -89.5t-52.5 -59t-72.5 -32.5t-80 -10q-64 0 -125.5 22t-102.5 65l96 108q23 -27 57.5 -44.5t72.5 -17.5q21 0 41 10.5t20 37.5q0 26 -25 38t-79 26q-27 7 -54.5 18t-49.5 29.5t-35.5 46t-13.5 67.5q0 50 20 85.5t51.5 58.5t70.5 34t77 11q59 0 115.5 -20.5
t95.5 -60.5z" />
    <glyph glyph-name="tcaron.sc" horiz-adv-x="483" 
d="M325 0h-167v425h-153v138h473v-138h-153v-425zM316 622h-147l-124 144h130l68 -81l68 81h128z" />
    <glyph glyph-name="tcommaaccent.sc" horiz-adv-x="483" 
d="M325 0h-167v425h-153v138h473v-138h-153v-425zM229 -240h-126l67 195h145z" />
    <glyph glyph-name="tbar.sc" horiz-adv-x="483" 
d="M55 350h103v75h-153v138h473v-138h-153v-75h103v-86h-103v-264h-167v264h-103v86z" />
    <glyph glyph-name="thorn.sc" horiz-adv-x="556" 
d="M288 248q41 0 59.5 15t18.5 44q0 57 -76 57h-53v-116h51zM70 563h167v-72h75q116 0 169 -49.5t53 -133.5q0 -90 -60.5 -139t-165.5 -49h-71v-120h-167v563z" />
    <glyph glyph-name="ugrave.sc" horiz-adv-x="646" 
d="M321 -16q-60 0 -107 16.5t-80 47.5t-50.5 74t-17.5 96v345h167v-334q0 -45 23 -72t66 -27q44 0 67.5 27t23.5 72v334h167v-345q0 -53 -18 -96t-51.5 -74t-81.5 -47.5t-108 -16.5zM274 622l-146 144h166l104 -144h-124z" />
    <glyph glyph-name="uacute.sc" horiz-adv-x="646" 
d="M321 -16q-60 0 -107 16.5t-80 47.5t-50.5 74t-17.5 96v345h167v-334q0 -45 23 -72t66 -27q44 0 67.5 27t23.5 72v334h167v-345q0 -53 -18 -96t-51.5 -74t-81.5 -47.5t-108 -16.5zM368 622h-124l104 144h166z" />
    <glyph glyph-name="ucircumflex.sc" horiz-adv-x="646" 
d="M321 -16q-60 0 -107 16.5t-80 47.5t-50.5 74t-17.5 96v345h167v-334q0 -45 23 -72t66 -27q44 0 67.5 27t23.5 72v334h167v-345q0 -53 -18 -96t-51.5 -74t-81.5 -47.5t-108 -16.5zM390 622l-68 81l-68 -81h-128l124 144h148l122 -144h-130z" />
    <glyph glyph-name="utilde.sc" horiz-adv-x="646" 
d="M321 -16q-60 0 -107 16.5t-80 47.5t-50.5 74t-17.5 96v345h167v-334q0 -45 23 -72t66 -27q44 0 67.5 27t23.5 72v334h167v-345q0 -53 -18 -96t-51.5 -74t-81.5 -47.5t-108 -16.5zM509 758q-3 -26 -11 -50t-21.5 -42t-33.5 -29t-47 -11q-21 0 -41 6t-40 15
q-20 11 -34.5 15.5t-28.5 4.5q-18 0 -27.5 -12t-14.5 -28h-72q3 26 11 49.5t21.5 41.5t33.5 28.5t47 10.5q21 0 40.5 -5.5t39.5 -14.5q21 -10 36 -15t29 -5q19 0 28 11.5t14 29.5h71v0z" />
    <glyph glyph-name="udieresis.sc" horiz-adv-x="646" 
d="M321 -16q-60 0 -107 16.5t-80 47.5t-50.5 74t-17.5 96v345h167v-334q0 -45 23 -72t66 -27q44 0 67.5 27t23.5 72v334h167v-345q0 -53 -18 -96t-51.5 -74t-81.5 -47.5t-108 -16.5zM297 708q0 -35 -24.5 -58.5t-59.5 -23.5t-59 24t-24 58q0 16 6.5 30.5t17.5 26t26.5 18
t32.5 6.5q35 0 59.5 -23.5t24.5 -57.5zM514 708q0 -35 -24.5 -58.5t-58.5 -23.5q-35 0 -59 24t-24 58q0 16 6.5 30.5t17.5 26t26 18t33 6.5q34 0 58.5 -23.5t24.5 -57.5z" />
    <glyph glyph-name="umacron.sc" horiz-adv-x="646" 
d="M321 -16q-60 0 -107 16.5t-80 47.5t-50.5 74t-17.5 96v345h167v-334q0 -45 23 -72t66 -27q44 0 67.5 27t23.5 72v334h167v-345q0 -53 -18 -96t-51.5 -74t-81.5 -47.5t-108 -16.5zM155 651v86h336v-86h-336z" />
    <glyph glyph-name="ubreve.sc" horiz-adv-x="646" 
d="M321 -16q-60 0 -107 16.5t-80 47.5t-50.5 74t-17.5 96v345h167v-334q0 -45 23 -72t66 -27q44 0 67.5 27t23.5 72v334h167v-345q0 -53 -18 -96t-51.5 -74t-81.5 -47.5t-108 -16.5zM496 766q-3 -39 -18 -66.5t-38 -44.5t-53.5 -25t-65.5 -8q-34 0 -64.5 7.5t-53.5 25
t-37.5 45t-17.5 66.5h84q3 -16 11.5 -26.5t21 -17t27.5 -9t30 -2.5q34 0 58.5 10t31.5 45h84v0z" />
    <glyph glyph-name="uring.sc" horiz-adv-x="646" 
d="M321 -16q-60 0 -107 16.5t-80 47.5t-50.5 74t-17.5 96v345h167v-334q0 -45 23 -72t66 -27q44 0 67.5 27t23.5 72v334h167v-345q0 -53 -18 -96t-51.5 -74t-81.5 -47.5t-108 -16.5zM383 714q0 25 -17 41.5t-42 16.5q-26 0 -42.5 -17t-16.5 -42q0 -24 17 -40.5t42 -16.5
t42 16.5t17 41.5zM433 714q0 -23 -8.5 -43t-23.5 -34t-35 -22t-42 -8q-23 0 -42.5 8t-34.5 22t-23.5 33.5t-8.5 42.5q0 47 31.5 77.5t77.5 30.5q22 0 42 -8t35 -22.5t23.5 -34t8.5 -42.5z" />
    <glyph glyph-name="uhungarumlaut.sc" horiz-adv-x="646" 
d="M321 -16q-60 0 -107 16.5t-80 47.5t-50.5 74t-17.5 96v345h167v-334q0 -45 23 -72t66 -27q44 0 67.5 27t23.5 72v334h167v-345q0 -53 -18 -96t-51.5 -74t-81.5 -47.5t-108 -16.5zM274 622h-124l104 144h166zM494 622h-124l104 144h166z" />
    <glyph glyph-name="uogonek.sc" horiz-adv-x="646" 
d="M441 -200q-23 -17 -53 -28.5t-62 -11.5q-20 0 -40.5 5t-36.5 16t-26 28.5t-10 41.5q0 19 7.5 37.5t20 36t28 32.5t31.5 28q-111 6 -172.5 68.5t-61.5 164.5v345h167v-334q0 -45 23 -72t66 -27q44 0 67.5 27t23.5 72v334h167v-345q0 -87 -46 -145.5t-130 -78.5
q-37 -29 -62 -59.5t-25 -56.5q0 -16 10.5 -26t26.5 -10q14 0 28 5.5t27 14.5l32 -62v0z" />
    <glyph glyph-name="wcircumflex.sc" horiz-adv-x="878" 
d="M701 0h-165l-98 350h-2l-96 -350h-164l-172 563h177l85 -356h3l89 356h166l91 -356h2l87 356h170zM506 622l-68 81l-68 -81h-128l124 144h148l122 -144h-130z" />
    <glyph glyph-name="yacute.sc" horiz-adv-x="566" 
d="M365 0h-167v222l-208 341h196l101 -201l100 201h189l-211 -341v-222zM331 622h-124l104 144h166z" />
    <glyph glyph-name="ycircumflex.sc" horiz-adv-x="566" 
d="M365 0h-167v222l-208 341h196l101 -201l100 201h189l-211 -341v-222zM354 622l-68 81l-68 -81h-128l124 144h148l122 -144h-130z" />
    <glyph glyph-name="ydieresis.sc" horiz-adv-x="566" 
d="M365 0h-167v222l-208 341h196l101 -201l100 201h189l-211 -341v-222zM261 708q0 -35 -24.5 -58.5t-59.5 -23.5t-59 24t-24 58q0 16 6.5 30.5t17.5 26t26.5 18t32.5 6.5q35 0 59.5 -23.5t24.5 -57.5zM478 708q0 -35 -24.5 -58.5t-58.5 -23.5q-35 0 -59 24t-24 58
q0 16 6.5 30.5t17.5 26t26 18t33 6.5q34 0 58.5 -23.5t24.5 -57.5z" />
    <glyph glyph-name="zacute.sc" horiz-adv-x="569" 
d="M53 126l245 301h-239v136h451v-122l-247 -302h253v-139h-463v126zM317 622h-124l104 144h166z" />
    <glyph glyph-name="zcaron.sc" horiz-adv-x="569" 
d="M53 126l245 301h-239v136h451v-122l-247 -302h253v-139h-463v126zM360 622h-147l-124 144h130l68 -81l68 81h128z" />
    <glyph glyph-name="zdotaccent.sc" horiz-adv-x="569" 
d="M53 126l245 301h-239v136h451v-122l-247 -302h253v-139h-463v126zM376 707q0 -36 -26 -60.5t-64 -24.5t-63.5 25t-25.5 60t25.5 60.5t63.5 25.5t64 -25t26 -61z" />
    <glyph glyph-name="fi.sc" horiz-adv-x="810" 
d="M236 332h207v-122h-206v-210h-167v563h392v-127h-226v-104zM573 563h167v-563h-167v563z" />
    <glyph glyph-name="fl.sc" horiz-adv-x="974" 
d="M236 332h207v-122h-206v-210h-167v563h392v-127h-226v-104zM573 563h167v-423h208v-140h-375v563z" />
    <glyph glyph-name="ij.sc" horiz-adv-x="787" 
d="M70 563h167v-563h-167v563zM545 -16q-79 0 -132 42.5t-69 109.5l149 49q5 -30 18.5 -42.5t30.5 -12.5q25 0 34.5 15.5t9.5 42.5v375h167v-369q0 -39 -9.5 -77t-33.5 -67.5t-64 -47.5t-101 -18z" />
    <glyph glyph-name="grave.sc" 
d="M107 622l-146 144h166l104 -144h-124z" />
    <glyph glyph-name="acute.sc" 
d="M193 622h-124l104 144h166z" />
    <glyph glyph-name="circumflex.sc" 
d="M217 622l-68 81l-68 -81h-128l124 144h148l122 -144h-130z" />
    <glyph glyph-name="caron.sc" 
d="M224 622h-147l-124 144h130l68 -81l68 81h128z" />
    <glyph glyph-name="tilde.sc" 
d="M189 368h-126l67 195h145z" />
    <glyph glyph-name="dieresis.sc" 
d="M335 758q-3 -26 -11 -50t-21.5 -42t-33.5 -29t-47 -11q-21 0 -41 5.5t-40 15.5t-34.5 15t-28.5 5q-18 0 -27.5 -12t-14.5 -28h-72q3 26 11 49.5t21.5 41.5t33.5 28.5t47 10.5q21 0 40.5 -5.5t39.5 -14.5q21 -10 36 -15t29 -5q19 0 28 11.5t14 29.5h71v0z" />
    <glyph glyph-name="macron.sc" 
d="M-18 651v86h336v-86h-336z" />
    <glyph glyph-name="breve.sc" 
d="M324 766q-3 -39 -18 -66.5t-38 -44.5t-53.5 -25t-65.5 -8q-34 0 -64.5 7.5t-53.5 25t-37.5 45t-17.5 66.5h84q3 -16 11.5 -26.5t21 -17t27.5 -9t30 -2.5q34 0 58.5 10t31.5 45h84v0z" />
    <glyph glyph-name="ring.sc" 
d="M209 714q0 25 -17 41.5t-42 16.5q-26 0 -42.5 -17t-16.5 -42q0 -24 17 -40.5t42 -16.5t42 16.5t17 41.5zM259 714q0 -23 -8.5 -43t-23.5 -34t-35 -22t-42 -8q-23 0 -42.5 8t-34.5 22t-23.5 33.5t-8.5 42.5q0 47 31.5 77.5t77.5 30.5q22 0 42 -8t35 -22.5t23.5 -34
t8.5 -42.5z" />
    <glyph glyph-name="hungarumlaut.sc" 
d="M90 622h-124l104 144h166zM310 622h-124l104 144h166z" />
    <glyph glyph-name="dotaccent.sc" 
d="M240 707q0 -36 -26 -60.5t-64 -24.5t-63.5 25t-25.5 60t25.5 60.5t63.5 25.5t64 -25t26 -61z" />
    <glyph glyph-name="exclamdown.sc" horiz-adv-x="339" 
d="M266 480q0 -20 -7.5 -36.5t-20.5 -29.5t-31 -20t-38 -7t-37.5 7.5t-30.5 20t-20.5 29.5t-7.5 37q0 40 28.5 66t67.5 26q41 0 69 -26.5t28 -66.5zM86 0v343h166v-343h-166z" />
    <glyph glyph-name="questiondown.sc" horiz-adv-x="500" 
d="M154 479q0 40 27.5 67t68.5 27q40 0 68.5 -26.5t28.5 -66.5q0 -20 -7.5 -37t-20.5 -29.5t-31 -20t-38 -7.5t-37.5 7t-30.5 20t-20.5 29.5t-7.5 36.5zM333 343v-19q0 -29 -12 -53.5t-45 -48.5l-23 -17q-32 -23 -32 -49q0 -11 8.5 -22.5t27.5 -11.5q15 0 26 11t14 32
l156 -18q-3 -29 -16.5 -58t-39 -52t-62.5 -38t-85 -15t-84 13t-60.5 35t-36.5 52t-12 63q0 42 16 73.5t59 62.5q21 15 29.5 26.5t8.5 24.5v9h163z" />
    <glyph glyph-name="Euro.sc" horiz-adv-x="576" 
d="M525 15q-30 -14 -69.5 -22.5t-80.5 -8.5q-98 0 -165 45.5t-88 139.5h-80l29 90h40v23q0 6 0.5 10.5t0.5 8.5h-70l32 90h50q28 93 101 140.5t176 47.5q42 0 76.5 -6.5t59.5 -16.5l-50 -127q-19 9 -45 14.5t-51 5.5q-35 0 -63 -14t-43 -44h189l-29 -90h-180q-1 -4 -1.5 -8
t-0.5 -12v-9.5t1 -12.5h170l-30 -90h-122q6 -15 17 -25t25 -16.5t29.5 -9.5t30.5 -3q27 0 51.5 5.5t51.5 18.5z" />
    <glyph glyph-name="cent.sc" horiz-adv-x="576" 
d="M320 382q-45 -11 -68.5 -47.5t-23.5 -85.5q0 -48 24 -84.5t68 -48.5v266zM556 51q-29 -29 -72 -45t-88 -20v-65h-76v65q-53 6 -96 28t-73.5 56.5t-47 80.5t-16.5 99q0 54 16.5 98.5t47.5 78.5t73.5 55.5t95.5 29.5v64h76v-64q46 -3 88.5 -18.5t70.5 -44.5l-83 -104
q-31 33 -76 39v-270q23 2 43.5 12.5t35.5 26.5l81 -102v0z" />
    <glyph glyph-name="sterling.sc" horiz-adv-x="576" 
d="M71 128h69v106h-69v113h69v38q0 39 13 74t38.5 61.5t63 42.5t87.5 16q57 0 97.5 -17t66.5 -45l-95 -109q-9 14 -24 22t-36 8q-24 0 -38 -15.5t-14 -37.5v-38h120v-113h-120v-106h203v-128h-431v128z" />
    <glyph glyph-name="florin.sc" horiz-adv-x="576" 
d="M477 238h-111l-29 -141q-18 -88 -63.5 -135.5t-133.5 -47.5q-27 0 -60 7.5t-57 21.5l48 120q28 -19 57 -19q24 0 38.5 17.5t22.5 58.5l23 118h-72v111h92l16 78q16 77 63.5 114.5t118.5 37.5q34 0 66 -8t58 -24l-59 -120q-26 18 -54 18q-16 0 -28 -9.5t-17 -33.5l-11 -53
h92v-111z" />
    <glyph glyph-name="yen.sc" horiz-adv-x="576" 
d="M203 86h-137v100h137v44h-137v100h96l-146 233h182l93 -184l91 184h178l-143 -233h80v-100h-139v-44h139v-100h-139v-86h-155v86z" />
    <glyph glyph-name="perthousand.sc" horiz-adv-x="1156" 
d="M273 -33l-88 42l332 587l91 -45zM1026 138q0 21 -13.5 33t-33.5 12t-33.5 -12t-13.5 -33t13.5 -33t33.5 -12t33.5 12t13.5 33zM1136 138q0 -32 -12.5 -59.5t-34.5 -48.5t-50.5 -33t-59.5 -12q-32 0 -60.5 12t-50 33t-34 48.5t-12.5 59.5t12.5 59.5t34 48t50 32.5t60.5 12
q31 0 59.5 -12t50.5 -32.5t34.5 -48t12.5 -59.5zM662 138q0 21 -13.5 33t-33.5 12t-33.5 -12t-13.5 -33t13.5 -33t33.5 -12t33.5 12t13.5 33zM772 138q0 -32 -12.5 -59.5t-34.5 -48.5t-50.5 -33t-59.5 -12q-32 0 -60.5 12t-50 33t-34 48.5t-12.5 59.5t12.5 59.5t34 48
t50 32.5t60.5 12q31 0 59.5 -12t50.5 -32.5t34.5 -48t12.5 -59.5zM228 424q0 21 -13.5 33t-33.5 12t-33.5 -12t-13.5 -33t13.5 -33t33.5 -12t33.5 12t13.5 33zM338 424q0 -32 -12.5 -59.5t-34.5 -48.5t-50.5 -33t-59.5 -12q-32 0 -60.5 12t-50 33t-34 48.5t-12.5 59.5
t12.5 59.5t34 48t50 32.5t60.5 12q31 0 59.5 -12t50.5 -32.5t34.5 -48t12.5 -59.5z" />
    <glyph glyph-name="zero.onum" horiz-adv-x="722" 
d="M506 285q0 32 -10.5 60t-29.5 48.5t-46 32.5t-60 12t-59.5 -12t-45 -32.5t-29 -48.5t-10.5 -60q0 -33 10.5 -61t29 -49t45 -33t59.5 -12t60 12t46 33t29.5 49t10.5 61zM673 285q0 -69 -24.5 -125t-67 -95.5t-99.5 -60.5t-122 -21q-64 0 -120.5 21t-98.5 60.5t-66.5 95.5
t-24.5 125t24.5 124.5t66.5 94t98.5 59t120.5 20.5q65 0 122 -20.5t99.5 -59t67 -94t24.5 -124.5z" />
    <glyph glyph-name="one.onum" horiz-adv-x="477" 
d="M199 0v391l-98 -72l-81 114l188 133h160v-566h-169z" />
    <glyph glyph-name="two.onum" horiz-adv-x="602" 
d="M60 0v128l53 31q64 37 112 65.5t79.5 53t47 47.5t15.5 49q0 33 -21.5 52.5t-61.5 19.5q-35 0 -62 -19.5t-42 -51.5l-135 54q31 69 93.5 111.5t155.5 42.5q46 0 90.5 -10.5t78.5 -33.5t55 -59.5t21 -89.5q0 -44 -18 -78.5t-46.5 -63t-63.5 -51.5t-70 -44l-29 -18v-2h236
v-133h-488z" />
    <glyph glyph-name="three.onum" horiz-adv-x="576" 
d="M526 83q0 -68 -27.5 -116t-72.5 -78.5t-102.5 -44.5t-117.5 -14q-30 0 -67.5 3t-70.5 10l24 143q25 -5 53 -8t49 -3q34 0 63 6.5t51 19.5t34.5 33.5t12.5 48.5q0 45 -40 68.5t-103 23.5q-49 0 -110 -14l-29 116q24 15 54.5 34t62.5 39.5t61.5 40.5t52.5 35v4h-240v136
h433v-142q-21 -16 -48 -35t-54.5 -38t-54.5 -36.5t-48 -30.5v-3q6 1 12.5 1.5t14.5 0.5q42 0 80 -14t66 -39.5t44.5 -63t16.5 -83.5z" />
    <glyph glyph-name="four.onum" horiz-adv-x="645" 
d="M522 3v-173h-159v173h-328v142l251 438h173l-262 -444h167v207h158v-207h99v-136h-99z" />
    <glyph glyph-name="five.onum" horiz-adv-x="573" 
d="M506 422h-256l-16 -118q11 2 23 3t23 1q49 0 91.5 -14t73.5 -41.5t48.5 -68.5t17.5 -95q0 -72 -27 -121.5t-71 -80t-100 -44t-114 -13.5q-29 0 -65 2.5t-74 9.5l23 143q24 -5 50.5 -7.5t47.5 -2.5q72 0 115.5 26.5t43.5 86.5q0 27 -11.5 46t-30 31t-43.5 17.5t-52 5.5
q-29 0 -64 -4.5t-69 -12.5l35 395h401v-144z" />
    <glyph glyph-name="six.onum" horiz-adv-x="656" 
d="M438 232q0 47 -29.5 77.5t-79.5 30.5t-80 -30.5t-30 -77.5t30 -79t79 -32q50 0 80 31.5t30 79.5zM606 234q0 -60 -22 -107t-59.5 -80t-88.5 -50t-108 -17t-107.5 15.5t-88.5 48t-60 82t-22 117.5q0 69 29.5 138.5t76 133.5t102.5 120.5t109 100.5l154 -70
q-32 -24 -64 -51.5t-61 -56t-53.5 -57t-41.5 -53.5l2 -2q12 8 31 12.5t41 4.5q46 0 88 -16t73.5 -46t50.5 -72.5t19 -94.5z" />
    <glyph glyph-name="seven.onum" horiz-adv-x="576" 
d="M535 436q-39 -79 -79 -163.5t-77 -166t-69.5 -155.5t-55.5 -131l-173 37q17 39 39 86t46.5 98t50 103.5t50 102.5t47 95t40.5 80h-312v144h493v-130v0z" />
    <glyph glyph-name="eight.onum" horiz-adv-x="649" 
d="M424 208q0 41 -27 68.5t-72 27.5q-46 0 -73 -27.5t-27 -68.5t27 -68t73 -27q45 0 72 27t27 68zM325 597q-38 0 -62 -24t-24 -59q0 -34 24 -59t62 -25q37 0 61.5 25t24.5 59q0 35 -24.5 59t-61.5 24zM591 199q0 -56 -22.5 -97t-59.5 -68t-85 -40t-99 -13q-52 0 -100 13
t-85 40t-59.5 68t-22.5 96q0 64 36 108.5t90 63.5v2q-46 17 -77 57t-31 97q0 50 20.5 87.5t55 63t79.5 38t94 12.5q48 0 92.5 -12.5t79 -37.5t55.5 -62.5t21 -87.5q0 -57 -30 -97.5t-78 -56.5v-3q27 -8 50 -24t40 -38t26.5 -50t9.5 -59z" />
    <glyph glyph-name="nine.onum" horiz-adv-x="656" 
d="M437 332q0 46 -30 78t-79 32q-50 0 -80 -31.5t-30 -79.5q0 -46 29.5 -77t79.5 -31t80 30.5t30 78.5zM606 318q0 -67 -30 -137t-76.5 -136.5t-103.5 -125t-111 -103.5l-153 71q34 27 66.5 56.5t62 59.5t53.5 58.5t41 53.5l-2 2q-12 -8 -31.5 -12.5t-40.5 -4.5
q-46 0 -88 16t-73.5 46t-50.5 72t-19 95q0 60 22 107.5t59.5 80t88.5 49.5t108 17t108 -16.5t88.5 -49.5t59.5 -82.5t22 -116.5z" />
    <glyph glyph-name="napostrophe.sc" horiz-adv-x="813" 
d="M211 563h184l190 -323h2l-5 323h161v-563h-182l-191 319h-3l4 -319h-160v563zM104 368h-126l67 195h145z" />
    <glyph glyph-name="ordfeminine.sc" horiz-adv-x="384" 
d="M191 628l-32 -86h63zM146 724h94l127 -293h-104l-19 51h-104l-20 -51h-104z" />
    </font>
</defs>
</svg>
